<?xml version="1.0" standalone="no"?>
<!DOCTYPE svg PUBLIC "-//W3C//DTD SVG 1.1//EN" "http://www.w3.org/Graphics/SVG/1.1/DTD/svg11.dtd" >
<svg xmlns="http://www.w3.org/2000/svg">
<metadata>
This is a custom SVG webfont generated by Font Squirrel.
Foundry     : DaltonMaag Ltd.
Foundry URL : http://www.daltonmaag.com/
</metadata>
<defs>
<font id="webfontJNp7rkYt" horiz-adv-x="544" >
<font-face units-per-em="1000" ascent="800" descent="-200" />
<missing-glyph horiz-adv-x="190" />
<glyph unicode=" "  horiz-adv-x="190" />
<glyph unicode="&#x09;" horiz-adv-x="190" />
<glyph unicode="&#xa0;" horiz-adv-x="190" />
<glyph unicode="!" horiz-adv-x="277" d="M78 705q0 16 16 16h92q6 0 11 -4.5t5 -11.5l-11 -497q0 -15 -16 -15h-70q-16 0 -16 15zM213 62q0 -30 -19 -51.5t-56 -21.5q-35 0 -55 20t-20 53q0 32 20 52.5t55 20.5q32 0 53.5 -20t21.5 -53z" />
<glyph unicode="&#x22;" horiz-adv-x="443" d="M98 706q2 15 15 15h75q5 0 9.5 -1.5t4.5 -9.5q0 -4 -0.5 -8.5t-1.5 -9.5l-30 -184q-2 -14 -14 -14h-75q-15 0 -15 10q0 6 2 16zM292 706q2 15 15 15h75q5 0 9.5 -1.5t4.5 -9.5q0 -4 -0.5 -8.5t-1.5 -9.5l-30 -184q-2 -14 -14 -14h-75q-15 0 -15 10q0 6 2 16z" />
<glyph unicode="#" horiz-adv-x="598" d="M73 157q-15 0 -15 15v54q0 6 4.5 10.5t10.5 4.5h94v124h-94q-15 0 -15 15v53q0 16 15 16h94v123q0 15 15 15h62q15 0 15 -15v-123h94v123q0 15 15 15h61q15 0 15 -15v-123h95q15 0 15 -16v-53q0 -15 -15 -15h-95v-124h95q6 0 10.5 -4.5t4.5 -10.5v-54q0 -15 -15 -15h-95 v-125q0 -15 -15 -15h-61q-15 0 -15 15v125h-94v-125q0 -15 -15 -15h-62q-15 0 -15 15v125h-94zM353 365h-94v-124h94v124z" />
<glyph unicode="$" d="M325 727q33 -2 62.5 -9t55.5 -17q10 -4 13 -8.5t3 -9.5t-1 -11l-2 -10l-15 -61q-3 -14 -13 -14q-5 0 -11 1.5t-17 5.5q-21 8 -52.5 15.5t-60.5 7.5q-45 0 -71.5 -20.5t-26.5 -57.5q0 -24 11 -42t30 -33.5t42.5 -28.5t49.5 -26q28 -15 56.5 -32t50.5 -40.5t36 -55 t14 -74.5q0 -81 -40.5 -136t-113.5 -73v-92q0 -15 -15 -15h-69q-15 0 -15 15v84q-39 2 -80.5 8t-79.5 23q-7 3 -11 7.5t-4 16.5v87q0 13 14 13q7 0 25 -7l40 -16q19 -8 37 -12.5t36.5 -7t42.5 -2.5q47 0 74 22t27 67q0 25 -10 44.5t-27 34.5t-38.5 27t-44.5 23 q-33 16 -63.5 34t-54 42t-38 56t-14.5 77q0 42 12.5 76t35 58.5t53.5 40.5t68 22v86q0 15 15 15h69q15 0 15 -15v-83z" />
<glyph unicode="%" horiz-adv-x="827" d="M787 167q0 -37 -10 -69.5t-30 -56.5t-50.5 -38t-71.5 -14q-76 0 -118.5 48t-42.5 130q0 36 10 67.5t30.5 55.5t50.5 38t70 14q77 0 119.5 -47.5t42.5 -127.5zM676 165q0 16 -2 32t-8 29.5t-16 22t-25 8.5q-14 0 -23.5 -8t-15.5 -21t-9 -29.5t-3 -33.5q0 -16 2.5 -32.5 t8.5 -30t16 -22.5t25 -9q14 0 23.5 8.5t15.5 22t8.5 30t2.5 33.5zM363 554q0 -37 -10 -69.5t-30 -56.5t-50.5 -38t-71.5 -14q-75 0 -118 48t-43 130q0 36 10 67.5t30.5 55.5t50.5 38t70 14q77 0 119.5 -47.5t42.5 -127.5zM251 555q0 16 -2 32t-7.5 29.5t-15.5 22t-25 8.5 q-14 0 -23.5 -8t-15.5 -21t-9 -29.5t-3 -33.5q0 -16 2.5 -32.5t8.5 -30t16 -22.5t25 -9q14 0 23.5 8.5t15 22t8 30t2.5 33.5zM290 19q-7 -13 -15 -16t-22 -3h-68q-18 0 -18 12q0 5 2.5 9.5t4.5 8.5l359 672q7 13 15 16t22 3h66q17 0 17 -12q0 -5 -2 -9.5t-4 -8.5z" />
<glyph unicode="&#x26;" horiz-adv-x="647" d="M455 83q-47 -53 -99.5 -73.5t-110.5 -20.5q-55 0 -95 15t-66 42t-38.5 63t-12.5 78q0 43 13 76.5t32.5 59t43 44.5t45.5 34q-14 26 -24 55.5t-10 64.5q0 41 13 76.5t38.5 62t64.5 41.5t90 15q35 0 67 -6t59 -15q13 -5 16.5 -9t3.5 -9t-1 -11l-2 -10l-12 -54 q-3 -14 -13 -14q-7 0 -15 2.5t-19 6.5q-13 5 -30.5 8.5t-41.5 3.5q-49 0 -70 -24.5t-21 -65.5q0 -30 14.5 -63.5t38 -67.5t53.5 -67l58 -63q9 30 13 65t6 91q0 15 15 15h77q15 0 15 -15q0 -73 -11.5 -134t-28.5 -97l113 -97q9 -8 9 -13q0 -4 -1.5 -6t-3.5 -5l-50 -58 q-5 -6 -12 -6q-8 0 -15 7zM255 94q42 0 70 16t48 39l-91 90q-36 37 -59 71q-10 -8 -21.5 -18.5t-21.5 -24.5t-16.5 -32.5t-6.5 -41.5q0 -45 26.5 -72t71.5 -27z" />
<glyph unicode="'" horiz-adv-x="249" d="M98 706q2 15 15 15h75q5 0 9.5 -1.5t4.5 -9.5q0 -4 -0.5 -8.5t-1.5 -9.5l-30 -184q-2 -14 -14 -14h-75q-15 0 -15 10q0 6 2 16z" />
<glyph unicode="(" horiz-adv-x="318" d="M192 321q0 -114 24.5 -217t57.5 -190q8 -23 8 -27q0 -10 -15 -10h-92q-15 0 -20 14q-39 100 -62 209t-23 221q0 107 20.5 218t58.5 211q5 14 20 14h92q15 0 15 -10q0 -4 -8 -27q-15 -41 -29 -89t-24.5 -100.5t-16.5 -107.5t-6 -109z" />
<glyph unicode=")" horiz-adv-x="318" d="M126.012 321q0 -114 -24.498 -217q-24.499 -103 -57.4971 -190q-7.99902 -23 -7.99902 -27q0 -10 14.999 -10h91.9941q14.999 0 19.999 14q38.9971 100 61.9961 209q22.998 109 22.998 221q0 107 -20.498 218q-20.499 111 -58.4971 211q-4.99902 14 -19.998 14h-91.9951 q-14.999 0 -14.999 -10q0 -4 8 -27q14.999 -41 28.998 -89t24.498 -100.5q10.5 -52.5 16.499 -107.5q6 -55 6 -109z" />
<glyph unicode="*" horiz-adv-x="453" d="M410 461q13 -7 13 -14q0 -6 -5 -14l-27 -45q-6 -10 -15 -10q-6 0 -13 5l-98 69l8 -116q2 -23 -20 -23h-52q-10 0 -16 5t-4 18l11 119l-101 -72q-7 -5 -14 -5q-10 0 -17 12l-25 43q-2 3 -3.5 7t-1.5 8q0 7 12 13l113 54l-112 53q-5 2 -9 5t-4 9q0 4 2 7.5t4 6.5l25 44 q7 13 16 13q5 0 8 -2t7 -4l98 -72l-9 124q-1 10 5.5 16t15.5 6h49q23 0 22 -21l-9 -126l98 72q2 2 6 4t9 2t9 -4.5t7 -9.5l24 -41q5 -8 5 -15q0 -6 -4 -9.5t-9 -5.5l-110 -51z" />
<glyph unicode="+" d="M239 141q-15 0 -15 15v135h-120q-15 0 -15 15v54q0 15 15 15h120v133q0 15 15 15h61q15 0 15 -15v-133h123q16 0 16 -15v-54q0 -15 -15 -15h-124v-134q0 -16 -15 -16h-61z" />
<glyph unicode="," horiz-adv-x="280" d="M56 -97q34 52 52 100q-20 11 -31 29t-11 38q0 33 21.5 54.5t58.5 21.5q40 0 59.5 -22.5t19.5 -57.5q0 -23 -7 -48t-17.5 -48.5t-22 -44.5t-20.5 -34q-8 -13 -21 -13h-75q-14 0 -14 9q0 5 8 16z" />
<glyph unicode="-" horiz-adv-x="439" d="M379 343q16 0 16 -15v-77q0 -15 -15 -15h-313q-15 0 -15 15v77q0 15 15 15h312z" />
<glyph unicode="." horiz-adv-x="280" d="M222 69q0 -33 -21.5 -56.5t-61.5 -23.5q-36 0 -58.5 22t-22.5 57t22.5 57t58.5 22t59.5 -21.5t23.5 -56.5z" />
<glyph unicode="/" horiz-adv-x="365" d="M108 -104q-5 -14 -11 -16.5t-20 -2.5h-59q-18 0 -18 12q0 5 1 9t3 9l254 830q3 11 10.5 14t18.5 3h61q17 0 17 -12q0 -5 -1.5 -10.5t-3.5 -10.5z" />
<glyph unicode="0" d="M515 353q0 -65 -11.5 -130t-39.5 -117t-75.5 -84.5t-120.5 -32.5t-119.5 31t-73 82t-36.5 116t-10 133q0 59 10.5 125.5t38.5 122.5t76 93t122 37q72 0 118 -32.5t73 -85t37.5 -120.5t10.5 -138zM390 351q0 42 -4 88.5t-16.5 85.5t-36 64t-61.5 25q-35 0 -57.5 -24.5 t-35.5 -62.5t-18.5 -84.5t-5.5 -91.5q0 -41 4 -86t17 -82.5t35.5 -62t60.5 -24.5q36 0 58.5 23.5t36 60.5t18.5 82t5 89z" />
<glyph unicode="1" d="M94 585q-4 -1 -9 -2t-10 -1q-8 0 -10 4.5t-2 11.5v69q0 14 17 18l134 30q22 6 45 6h64q16 0 16 -15v-608h138q15 0 15 -15v-68q0 -15 -15 -15h-399q-15 0 -15 15v68q0 15 15 15h141v515z" />
<glyph unicode="2" d="M62 695q36 14 82 24t102 10q51 0 90 -15t65 -42.5t39.5 -65t13.5 -82.5q0 -75 -25.5 -139t-70.5 -122q-15 -20 -34 -41l-39 -44l-41 -42l-39 -38h257q15 0 15 -15v-68q0 -15 -15 -15h-411q-15 0 -15 15v52q0 17 10 27q56 52 107 105.5t86 98.5q48 60 68.5 113.5 t20.5 98.5q0 33 -9 54t-24 34t-34 18t-40 5q-31 0 -63 -7.5t-61 -18.5q-7 -2 -14 -5t-12 -3q-12 0 -15 14l-5 24q0 2 -1.5 9t-3 15t-2.5 15t-1 9q0 6 3.5 11.5t15.5 10.5z" />
<glyph unicode="3" d="M83 121q18 -7 34.5 -12t33.5 -8.5t35 -5.5t41 -2q26 0 48.5 7t39.5 21.5t26.5 37t9.5 53.5q0 54 -34.5 82t-91.5 28h-96q-15 0 -15 15v74q0 15 15 15h93q23 0 45 7t38.5 21t26.5 34t10 47q0 26 -9 43.5t-24.5 27.5t-35 14t-40.5 4q-36 0 -63.5 -6t-47.5 -12l-22 -7 q-9 -3 -15 -3q-12 0 -15 14l-5 21q0 2 -1.5 9t-3 15t-2.5 15t-1 9q0 7 3.5 12.5t17.5 9.5q37 11 81.5 19.5t93.5 8.5q44 0 82.5 -10t67.5 -31.5t46 -56.5t17 -84q0 -58 -30.5 -101t-75.5 -66q51 -20 83.5 -63.5t32.5 -102.5q0 -108 -67 -166.5t-188 -58.5q-52 0 -94 7.5 t-70 17.5q-15 5 -15 26v75q0 13 13 13q5 0 12 -2t16 -5z" />
<glyph unicode="4" d="M311 576l-175 -286h175v286zM281 703q8 13 16 15.5t16 2.5h97q16 0 16 -15v-416h80q15 0 15 -15v-69q0 -15 -15 -15h-80v-176q0 -15 -16 -15h-83q-16 0 -16 15v176h-271q-15 0 -15 15v65q0 11 3 18.5t7 12.5z" />
<glyph unicode="5" d="M96 115q31 -11 56.5 -15.5t60.5 -4.5q66 0 101.5 34.5t35.5 103.5q0 61 -36.5 95.5t-108.5 34.5q-38 0 -62 -3q-14 -2 -24 -3t-19 -1q-12 0 -15 7.5t-3 16.5v326q0 15 15 15h332q15 0 15 -15v-74q0 -15 -15 -15h-228v-153h40q60 0 104.5 -17t73.5 -47t43.5 -71.5 t14.5 -90.5q0 -115 -66 -182t-197 -67q-45 0 -80 5t-66 16q-8 3 -11.5 8t-3.5 16v76q0 13 13 13q5 0 13 -3z" />
<glyph unicode="6" d="M433 615q-6 0 -13 1t-15 3q-9 2 -20 3t-27 1q-86 0 -129.5 -55t-51.5 -149q29 23 64 37t77 14q92 0 139 -61.5t47 -164.5q0 -57 -16 -104t-46.5 -80.5t-73.5 -52t-97 -18.5q-63 0 -106.5 25.5t-70 69.5t-38 103.5t-11.5 127.5q0 75 13 149.5t47.5 133t96 95t158.5 36.5 q26 0 48 -3t36 -8q10 -3 13 -7t3 -9t-1 -10l-2 -11l-11 -52q-3 -14 -13 -14zM383 239q0 65 -26 96t-72 31q-41 0 -68 -10.5t-47 -24.5q-1 -8 -1 -18v-20q0 -33 4.5 -68.5t16.5 -65t33.5 -48.5t55.5 -19q22 0 41 8t33 25.5t22 45.5t8 68z" />
<glyph unicode="7" d="M147 13q0 26 6 60.5t12 64.5q13 62 34 129t47 131t56 121t60 98h-314q-15 0 -15 15v74q0 15 15 15h448q15 0 15 -15v-59q0 -11 -3.5 -17.5t-8.5 -11.5q-34 -40 -66 -96t-59 -120t-49 -131.5t-35 -130.5q-12 -61 -18 -125q-2 -15 -16 -15h-94q-5 0 -10 2.5t-5 10.5z" />
<glyph unicode="8" d="M507 206q0 -49 -16.5 -89t-47 -68.5t-74 -44t-97.5 -15.5q-115 0 -175.5 55t-60.5 150q0 70 34.5 115t86.5 72q-42 25 -70 63.5t-28 99.5q0 86 58.5 135.5t159.5 49.5q45 0 83.5 -11.5t67.5 -34.5t45.5 -57.5t16.5 -80.5q0 -29 -8.5 -54t-22 -45.5t-31 -36.5t-35.5 -27 q63 -30 88.5 -74t25.5 -102zM364 534q0 18 -5 35.5t-16.5 30.5t-29 21t-41.5 8q-43 0 -64.5 -25t-21.5 -63q0 -43 30.5 -72.5t74.5 -49.5q12 7 25 18.5t23.5 26t17.5 32t7 38.5zM383 204q0 25 -11.5 45.5t-30 36t-41.5 26.5t-46 18q-38 -16 -65 -46t-27 -86q0 -47 28.5 -78 t82.5 -31q53 0 81.5 28.5t28.5 86.5z" />
<glyph unicode="9" d="M90 106q10 0 31.5 -6t69.5 -6q44 0 74.5 14t51 40t32 64t17.5 86q-24 -20 -53 -32.5t-78 -12.5q-44 0 -80 15t-62 44t-40.5 72t-14.5 99q0 58 16.5 103.5t46.5 77t71 48.5t89 17q68 0 113 -26t72 -68t38.5 -96.5t11.5 -111.5q0 -84 -11.5 -163t-44.5 -140t-93 -98 t-156 -37q-32 0 -55 3t-40 8q-12 4 -15 11t-3 18v60q0 17 12 17zM159 487q0 -69 25.5 -102.5t71.5 -33.5q41 0 68 12t47 26q1 8 1 18v20q0 33 -4.5 68t-16.5 64.5t-32.5 48t-52.5 18.5q-23 0 -42.5 -7.5t-33.5 -24t-22.5 -43t-8.5 -64.5z" />
<glyph unicode=":" horiz-adv-x="280" d="M222 69q0 -33 -21.5 -56.5t-61.5 -23.5q-36 0 -58.5 22t-22.5 57t22.5 57t58.5 22t59.5 -21.5t23.5 -56.5zM222 440q0 -33 -21.5 -56.5t-61.5 -23.5q-36 0 -58.5 22t-22.5 57t22.5 57t58.5 22t59.5 -21.5t23.5 -56.5z" />
<glyph unicode=";" horiz-adv-x="299" d="M56 -97q34 52 52 100q-20 11 -31 29t-11 38q0 33 21.5 54.5t58.5 21.5q40 0 59.5 -22.5t19.5 -57.5q0 -23 -7 -48t-17.5 -48.5t-22 -44.5t-20.5 -34q-8 -13 -21 -13h-75q-14 0 -14 9q0 5 8 16zM241 440q0 -33 -21.5 -56.5t-61.5 -23.5q-36 0 -58.5 22t-22.5 57t22.5 57 t58.5 22t59.5 -21.5t23.5 -56.5z" />
<glyph unicode="&#x3c;" d="M429 583q2 2 6 3.5t8 1.5q9 0 9 -14v-72q0 -14 -13 -22l-246 -138l246 -138q6 -4 9.5 -7t3.5 -11v-78q0 -14 -9 -14q-4 0 -8.5 2t-6.5 4l-323 190q-6 4 -9.5 7.5t-3.5 11.5v66q0 8 3.5 11.5t9.5 7.5z" />
<glyph unicode="=" d="M107 204q-15 0 -15 15v54q0 15 15 15h329q16 0 16 -15v-54q0 -15 -15 -15h-330zM107 373q-15 0 -15 15v54q0 15 15 15h329q16 0 16 -15v-54q0 -15 -15 -15h-330z" />
<glyph unicode="&#x3e;" d="M439 394q6 -4 9.5 -7.5t3.5 -11.5v-66q0 -8 -3.5 -11.5t-9.5 -7.5l-323 -190q-2 -2 -6.5 -4t-8.5 -2q-9 0 -9 14v78q0 8 3.5 11t9.5 7l246 138l-246 138q-13 8 -13 22v72q0 14 9 14q4 0 8 -1.5t6 -3.5z" />
<glyph unicode="?" horiz-adv-x="415" d="M39 700q37 14 73.5 21.5t81.5 7.5q92 0 144 -45t52 -129q0 -37 -11.5 -69.5t-31 -62t-46 -55t-56.5 -49.5l-36 -28v-82q0 -15 -16 -15h-88q-15 0 -17 15v100q0 21 16 33l49 37q22 16 42.5 35t36.5 39.5t25.5 43t9.5 46.5q0 42 -27.5 62.5t-67.5 20.5q-30 0 -55 -6 t-49 -16q-6 -2 -11 -4t-10 -2q-11 0 -14 15l-10 45l-2 10q-1 6 -1 11q0 6 3.5 11t15.5 10zM220 62q0 -30 -19 -51.5t-56 -21.5q-35 0 -55 20t-20 53q0 32 20 52.5t55 20.5q32 0 53.5 -20t21.5 -53z" />
<glyph unicode="@" horiz-adv-x="825" d="M526 -211q-23 -5 -50.5 -7t-62.5 -2q-81 0 -149 24t-118 72t-78 119t-28 166q0 82 28 152t78 120.5t120.5 79t155.5 28.5q73 0 138.5 -20.5t115.5 -62t79.5 -103.5t29.5 -145q0 -44 -13.5 -85.5t-40 -73.5t-65 -51.5t-88.5 -19.5q-14 0 -30 2t-32 7t-30.5 14.5 t-24.5 23.5q-20 -16 -42.5 -27t-56.5 -11q-63 0 -94 39.5t-31 100.5q0 42 13.5 76.5t42.5 64.5q57 58 147 58q41 0 90 -11q14 -3 14 -15v-7q0 -5 -1 -10l-18 -167q-1 -5 -1 -10v-10q0 -13 5 -20.5t13 -11.5t18 -5t21 -1q28 0 48 11.5t33 32t19 47.5t6 59q0 57 -19.5 101.5 t-54.5 75.5t-85 47t-111 16t-112 -21t-87.5 -59t-56.5 -91.5t-20 -117.5q0 -68 19 -122.5t54.5 -92.5t86.5 -58.5t115 -20.5q33 0 50.5 1.5t35.5 4.5q8 2 15 3.5t12 1.5q12 0 12 -14v-55q0 -17 -15 -20zM453 251q-5 1 -11 1h-11q-47 0 -74.5 -32.5t-27.5 -82.5q0 -29 10 -48 t41 -19q16 0 31 4.5t24 11.5z" />
<glyph unicode="A" horiz-adv-x="599" d="M231 704q6 17 30 17h84q24 0 29 -16l220 -682q2 -6 2 -10q0 -13 -17 -13h-91q-10 0 -16.5 3t-9.5 13l-54 176h-221l-54 -175q-3 -11 -9.5 -14t-16.5 -3h-87q-17 0 -17 13q0 4 2 10zM301 558l-80 -262h154z" />
<glyph unicode="B" horiz-adv-x="582" d="M306 721q83 0 135 -32q38 -23 62 -62.5t24 -92.5q0 -50 -26 -92.5t-72 -64.5q57 -23 87.5 -67.5t30.5 -96.5q0 -48 -16.5 -87t-46.5 -67t-72 -43.5t-93 -15.5h-223q-16 0 -16 15v691q0 15 16 15h210zM416 212q0 50 -32.5 77.5t-78.5 27.5h-98v-210h92q24 0 45.5 5.5 t37 18t25 32.5t9.5 49zM396 520q0 46 -26.5 71.5t-69.5 25.5h-93v-196h96q42 0 67.5 26t25.5 73z" />
<glyph unicode="C" horiz-adv-x="502" d="M469 11q-28 -12 -66.5 -17t-77.5 -5q-84 0 -137.5 32t-85 84t-43.5 118.5t-12 135.5q0 64 13 130t46.5 119.5t90 87t143.5 33.5q33 0 70 -5.5t64 -16.5q10 -4 13 -8t3 -9t-1 -10l-2 -11l-14 -59q-3 -14 -13 -14q-5 0 -11 1.5t-17 5.5q-17 5 -37 9t-46 4 q-47 0 -79.5 -21.5t-52 -57.5t-28 -83t-8.5 -98q0 -48 7 -94t25.5 -82t51 -58t82.5 -22q32 0 54.5 4.5t43.5 12.5q18 7 25 7q14 0 14 -13v-76q0 -12 -4 -16.5t-11 -7.5z" />
<glyph unicode="D" horiz-adv-x="620" d="M275 721q84 0 139 -23.5t94 -71.5q77 -95 77 -266q0 -167 -80 -263q-79 -97 -232 -97h-177q-16 0 -16 15v691q0 15 16 15h179zM455 360q0 120 -41 186q-20 31 -52.5 48.5t-78.5 17.5h-76v-505h89q36 0 66 17t50 48q43 64 43 188z" />
<glyph unicode="E" horiz-adv-x="510" d="M96 0q-16 0 -16 15v691q0 15 16 15h365q15 0 15 -16v-77q0 -16 -15 -16h-253v-193h242q15 0 15 -16v-74q0 -16 -15 -16h-242v-205h263q15 0 15 -16v-76q0 -16 -15 -16h-375z" />
<glyph unicode="F" horiz-adv-x="491" d="M96 0q-16 0 -16 15v691q0 15 16 15h365q15 0 15 -16v-77q0 -16 -15 -16h-253v-190h242q15 0 15 -16v-74q0 -16 -15 -16h-242v-301q0 -15 -16 -15h-96z" />
<glyph unicode="G" horiz-adv-x="600" d="M546 59q0 -11 -3 -17.5t-12 -11.5q-21 -12 -47 -20t-52.5 -12.5t-51.5 -6.5t-44 -2q-80 0 -135 27.5t-89 76.5t-49.5 117t-15.5 149q0 66 13.5 132t46.5 119t87.5 86t137.5 33q51 0 88 -6.5t69 -20.5q10 -5 13 -9t3 -9t-1 -10l-2 -11l-14 -60q-3 -14 -13 -14 q-5 0 -10.5 2t-16.5 5q-25 8 -48.5 13t-57.5 5q-47 0 -78 -21t-49.5 -55.5t-26 -80.5t-7.5 -95q0 -47 7.5 -93.5t25.5 -84.5t48 -61.5t75 -23.5q29 0 46 3t38 11v232q0 15 16 15h93q16 0 16 -15v-286z" />
<glyph unicode="H" horiz-adv-x="655" d="M208 15q0 -15 -16 -15h-96q-16 0 -16 15v691q0 15 16 15h96q16 0 16 -15v-282h240v282q0 15 16 15h95q16 0 16 -15v-691q0 -15 -16 -15h-95q-16 0 -16 15v299h-240v-299z" />
<glyph unicode="I" horiz-adv-x="288" d="M208 15q0 -15 -16 -15h-96q-16 0 -16 15v691q0 15 16 15h96q16 0 16 -15v-691z" />
<glyph unicode="J" horiz-adv-x="397" d="M28 113q4 0 7.5 -1t8.5 -3q9 -3 25 -6t41 -3q21 0 37.5 4.5t28 16.5t17.5 33.5t6 55.5v496q0 15 16 15h96q16 0 16 -15v-468q0 -38 -2.5 -75t-12.5 -64q-23 -62 -71.5 -86t-127.5 -24q-33 0 -55.5 4t-35.5 7t-17.5 7t-4.5 9t1 11t2 11l11 59q3 16 14 16z" />
<glyph unicode="K" horiz-adv-x="567" d="M573 33q9 -14 9 -19q0 -14 -17 -14h-102q-14 0 -20.5 4t-14.5 15l-220 319v-323q0 -15 -16 -15h-96q-16 0 -16 15v691q0 15 16 15h96q16 0 16 -15v-315l220 311q8 11 15.5 15t21.5 4h90q17 0 17 -14q0 -6 -9 -18l-227 -313z" />
<glyph unicode="L" horiz-adv-x="503" d="M96 0q-16 0 -16 15v691q0 15 16 15h96q16 0 16 -15v-596h280q15 0 15 -16v-78q0 -16 -15 -16h-392z" />
<glyph unicode="M" horiz-adv-x="808" d="M80 706q0 15 16 15h103q15 0 20 -13l187 -499l191 499q5 13 20 13h95q16 0 16 -15v-691q0 -15 -16 -15h-88q-16 0 -16 15v437l-145 -367q-7 -16 -30 -16h-58q-23 0 -30 17l-140 352v-423q0 -15 -16 -15h-93q-16 0 -16 15v691z" />
<glyph unicode="N" horiz-adv-x="645" d="M565 15q0 -15 -16 -15h-77q-14 0 -20 13l-248 444v-442q0 -15 -16 -15h-92q-16 0 -16 15v691q0 15 16 15h74q14 0 20 -12l251 -465v462q0 15 16 15h92q16 0 16 -15v-691z" />
<glyph unicode="O" horiz-adv-x="646" d="M599 362q0 -62 -13 -128t-44.5 -120.5t-84.5 -89.5t-134 -35q-84 0 -137.5 31.5t-84.5 83.5t-42.5 118.5t-11.5 136.5q0 61 12.5 126.5t43.5 119.5t84.5 89t136.5 35q81 0 134 -31.5t84.5 -83t44 -117.5t12.5 -135zM467 360q0 38 -5 82t-20 82t-43 63.5t-75 25.5 q-45 0 -73 -24t-43.5 -61t-21.5 -82t-6 -86q0 -37 5 -82.5t20 -85t43 -66.5t75 -27q45 0 73 25.5t43.5 64t21.5 84.5t6 87z" />
<glyph unicode="P" horiz-adv-x="549" d="M281 721q52 0 98.5 -14.5t80.5 -44t54 -73t20 -100.5q0 -59 -17 -104t-53 -80q-33 -32 -83 -49t-113 -17h-61v-224q0 -15 -16 -15h-95q-16 0 -16 15v691q0 15 16 15h185zM405 487q0 63 -38 93.5t-104 30.5h-56v-264h54q69 0 106.5 33.5t37.5 106.5z" />
<glyph unicode="Q" horiz-adv-x="646" d="M599 362q0 -46 -7.5 -95.5t-24 -95t-44 -84t-67.5 -63.5l54 -107q3 -5 3 -10q0 -13 -17 -13h-77q-19 0 -26 16l-38 81q-8 -1 -16 -1.5t-16 -0.5q-84 0 -137.5 31.5t-84.5 83.5t-42.5 118.5t-11.5 136.5q0 61 12.5 126.5t43.5 119.5t84.5 89t136.5 35q81 0 134 -31.5 t84.5 -83t44 -117.5t12.5 -135zM467 360q0 38 -5 82t-20 82t-43 63.5t-75 25.5q-45 0 -73 -24t-43.5 -61t-21.5 -82t-6 -86q0 -42 5 -86.5t19 -82t40 -63t68 -29.5l-44 100q-1 2 -2.5 7t-1.5 8q0 13 17 13h70q20 0 26 -16l35 -78q19 20 30.5 47.5t16.5 58t6.5 62t1.5 59.5z " />
<glyph unicode="R" horiz-adv-x="582" d="M263 279h-55v-264q0 -15 -16 -15h-96q-16 0 -16 15v691q0 15 16 15h193q49 0 94 -12.5t79 -38.5t54 -65.5t20 -93.5q0 -81 -40 -132t-106 -77l173 -268q9 -15 9 -20q0 -14 -17 -14h-98q-14 0 -21 4t-14 15zM401 500q0 60 -33 86.5t-92 26.5h-68v-232h67q59 0 92.5 29.5 t33.5 89.5z" />
<glyph unicode="S" horiz-adv-x="493" d="M69 138l41 -16q18 -8 36 -12.5t36.5 -7t42.5 -2.5q47 0 74 22t27 67q0 25 -10 44.5t-27 34.5t-38.5 27t-44.5 23q-33 16 -63.5 34t-54 42t-38 56t-14.5 77q0 50 17.5 87.5t47.5 63t71 38.5t88 13q48 0 87.5 -7t74.5 -21q10 -4 13 -8.5t3 -9.5t-1 -11l-2 -10l-15 -61 q-3 -14 -13 -14q-5 0 -11 1.5t-17 5.5q-21 8 -52.5 15.5t-60.5 7.5q-45 0 -71.5 -20.5t-26.5 -57.5q0 -24 11 -42t30 -33.5t42.5 -28.5t49.5 -26q28 -15 56.5 -32t50.5 -40.5t36 -55t14 -74.5q0 -49 -15.5 -89.5t-44.5 -69t-70.5 -44t-94.5 -15.5q-44 0 -93 6t-95 26 q-7 3 -11 7.5t-4 16.5v87q0 13 14 13q7 0 25 -7z" />
<glyph unicode="T" horiz-adv-x="455" d="M290 613v-598q0 -15 -16 -15h-94q-16 0 -16 15v598h-149q-15 0 -15 16v76q0 16 15 16h425q15 0 15 -16v-76q0 -16 -15 -16h-150z" />
<glyph unicode="U" horiz-adv-x="630" d="M198 232q0 -35 9.5 -60t26 -40.5t39 -23t48.5 -7.5q57 0 85.5 32.5t28.5 86.5v486q0 15 16 15h93q16 0 16 -15v-477q0 -115 -59 -177.5t-186 -62.5q-115 0 -180 56t-65 175v486q0 15 16 15h96q16 0 16 -15v-474z" />
<glyph unicode="V" horiz-adv-x="592" d="M365 17q-5 -17 -30 -17h-84q-25 0 -30 17l-216 680q-2 6 -2 11q0 13 17 13h97q10 0 16.5 -3t9.5 -14l155 -534l158 533q3 11 9 14.5t16 3.5h91q17 0 17 -13q0 -5 -2 -11z" />
<glyph unicode="W" horiz-adv-x="803" d="M246 203l96 383q4 18 29 18h58q24 0 29 -17l108 -395l107 510q2 11 9 15t17 4h80q17 0 17 -13q0 -4 -3 -16l-153 -675q-4 -17 -30 -17h-71q-25 0 -30 17l-110 407l-107 -408q-2 -10 -10 -13t-19 -3h-71q-26 0 -30 16l-152 675q-1 3 -2 8.5t-1 8.5q0 13 17 13h86 q10 0 17 -3.5t9 -14.5z" />
<glyph unicode="X" horiz-adv-x="534" d="M262 261l-121 -244q-5 -10 -10.5 -13.5t-15.5 -3.5h-98q-17 0 -17 13q0 4 8 20l184 345l-174 311q-5 9 -6 12.5t-1 6.5q0 13 17 13h102q10 0 15.5 -3.5t10.5 -13.5l111 -219l108 219q5 10 10.5 13.5t15.5 3.5h93q17 0 17 -13q0 -5 -7 -19l-166 -309l189 -348 q5 -9 6 -12.5t1 -6.5q0 -13 -17 -13h-99q-10 0 -15.5 3.5t-10.5 13.5z" />
<glyph unicode="Y" horiz-adv-x="536" d="M327 295v-280q0 -15 -16 -15h-96q-16 0 -16 15v277l-193 399q-6 12 -6 17q0 13 17 13h98q18 0 26 -17l125 -282l133 282q8 17 26 17h94q17 0 17 -13q0 -5 -6 -17z" />
<glyph unicode="Z" horiz-adv-x="505" d="M328 609h-276q-15 0 -15 16v80q0 16 15 16h419q15 0 15 -16v-55q0 -11 -2.5 -17.5t-6.5 -12.5l-309 -510h307q15 0 15 -16v-78q0 -16 -15 -16h-445q-15 0 -15 16v55q0 11 2.5 17.5t6.5 12.5z" />
<glyph unicode="[" horiz-adv-x="310" d="M80 748q0 6 4 10.5t11 4.5h180q15 0 15 -16v-62q0 -16 -15 -16h-82v-699h82q15 0 15 -16v-61q0 -16 -15 -16h-180q-7 0 -11 4.5t-4 10.5v856z" />
<glyph unicode="\" horiz-adv-x="365" d="M257.007 -104q4.99902 -14 10.999 -16.5t19.999 -2.5h58.9961q17.999 0 17.999 12q0 5 -1 9t-3 9l-253.984 830q-3 11 -10.499 14q-7.5 3 -18.499 3h-60.9961q-16.999 0 -16.999 -12q0 -5 1.5 -10.5t3.49902 -10.5z" />
<glyph unicode="]" horiz-adv-x="310" d="M230.005 748q0 6 -4 10.5q-3.99902 4.5 -10.999 4.5h-179.989q-14.999 0 -14.999 -16v-62q0 -16 14.999 -16h81.9951v-699h-81.9951q-14.999 0 -14.999 -16v-61q0 -16 14.999 -16h179.989q7 0 10.999 4.5q4 4.5 4 10.5v856z" />
<glyph unicode="^" horiz-adv-x="440" d="M411 415q2 -2 3.5 -6.5t1.5 -8.5q0 -9 -14 -9h-74q-16 0 -22 13l-90 222l-91 -222q-3 -7 -6.5 -10t-11.5 -3h-78q-14 0 -14 9q0 4 2 8.5t4 6.5l133 293q4 6 7.5 9.5t11.5 3.5h89q8 0 11 -3.5t7 -9.5z" />
<glyph unicode="_" horiz-adv-x="423" d="M417 -93q16 0 16 -15v-58q0 -15 -15 -15h-403q-15 0 -15 15v58q0 15 15 15h402z" />
<glyph unicode="`" horiz-adv-x="460" d="M317 592q4 -10 4 -14q0 -12 -17 -12h-70q-9 0 -12.5 4t-7.5 12l-60 130q-3 7 -3 12q0 8 5.5 10.5t10.5 2.5h78q13 0 19 -15z" />
<glyph unicode="a" horiz-adv-x="474" d="M87 490q32 10 71.5 15.5t80.5 5.5q51 0 83.5 -12t52.5 -34q41 -47 41 -130v-320q0 -15 -15 -15h-83q-15 0 -15 15v23q-14 -13 -45.5 -29t-81.5 -16q-66 0 -106 40t-40 118q0 45 17 77t45 52t64.5 29t76.5 9h66v26q0 32 -20.5 49.5t-66.5 17.5q-20 0 -46.5 -4.5 t-45.5 -9.5q-7 -2 -11.5 -3t-8.5 -1q-10 0 -14 14l-12 47q-2 5 -3 10.5t-1 10.5q0 10 17 15zM299 238h-62q-38 0 -60 -21t-22 -59q0 -29 14.5 -51.5t54.5 -22.5q20 0 39.5 5.5t35.5 15.5v133z" />
<glyph unicode="b" horiz-adv-x="529" d="M183 458q23 22 55 37.5t75 15.5q51 0 86 -20t56 -54t30 -78t9 -93q0 -58 -15 -108.5t-45.5 -88t-76.5 -59t-108 -21.5q-45 0 -84 5.5t-81 19.5q-15 5 -18.5 15.5t-3.5 23.5v686q0 15 15 15h91q15 0 15 -15v-281zM365 256q0 26 -4 52.5t-14 48t-28.5 35t-46.5 13.5 q-24 0 -47 -8t-41 -22v-280q14 -7 30 -9.5t34 -2.5q34 0 57 15t36 39.5t18.5 55.5t5.5 63z" />
<glyph unicode="c" horiz-adv-x="413" d="M378 6q-11 -4 -25.5 -7t-30 -5.5t-31 -3.5t-28.5 -1q-69 0 -114 24.5t-72 66.5q-23 35 -32.5 79t-9.5 92q0 51 14 98t42.5 83t72.5 57.5t105 21.5q38 0 66.5 -6t48.5 -13q16 -5 16 -16q0 -4 -1 -10l-2 -10l-11 -52q-3 -14 -13 -14q-5 0 -10.5 1.5t-11.5 3.5 q-14 5 -34.5 8.5t-38.5 3.5q-54 0 -86.5 -39.5t-32.5 -114.5q0 -36 6.5 -66t21.5 -51.5t38.5 -34t58.5 -12.5q23 0 38.5 3.5t35.5 8.5q8 2 12 3.5t9 1.5q13 0 13 -12v-65q0 -11 -3.5 -15.5t-10.5 -7.5z" />
<glyph unicode="d" horiz-adv-x="531" d="M356 37q-17 -17 -48 -32.5t-74 -15.5q-58 0 -99.5 24t-64.5 67q-18 33 -26.5 77.5t-8.5 94.5q0 51 11.5 98t36.5 82.5t63 57t91 21.5q37 0 64 -12.5t47 -29.5v270q0 15 15 15h91q15 0 15 -15v-724q0 -15 -15 -15h-83q-15 0 -15 15v22zM348 379q-14 11 -35 19t-47 8 q-32 0 -52.5 -13.5t-32 -35.5t-16 -50t-4.5 -57q0 -27 4 -56t15.5 -52.5t32 -38.5t53.5 -15q27 0 46 6.5t36 17.5v267z" />
<glyph unicode="e" horiz-adv-x="482" d="M419 12q-23 -8 -61.5 -15.5t-74.5 -7.5q-83 0 -134.5 28t-78.5 76q-18 32 -26.5 73t-8.5 86q0 116 60 188q30 35 69.5 53t94.5 18q52 0 88.5 -19t59.5 -51.5t33 -75t10 -89.5v-25q0 -16 -1 -23q-1 -10 -5.5 -16t-17.5 -6h-266q2 -24 10.5 -45t25 -36.5t41.5 -25t60 -9.5 q26 0 46.5 3.5t52.5 14.5q9 3 14 5t10 2q13 0 13 -12v-68q0 -11 -3.5 -16t-10.5 -7zM332 294q0 62 -20.5 90.5t-61.5 28.5q-37 0 -63.5 -29t-28.5 -90h174z" />
<glyph unicode="f" horiz-adv-x="337" d="M338 651q-8 0 -13.5 1.5t-12 3t-16.5 3t-25 1.5q-37 0 -53 -18t-16 -56v-87h115q15 0 15 -15v-66q0 -15 -15 -15h-115v-388q0 -15 -15 -15h-91q-15 0 -15 15v388h-66q-15 0 -15 15v66q0 15 15 15h69v96q0 34 7 61t24 50q20 26 55 40.5t83 14.5q23 0 49.5 -2.5t46.5 -9.5 q16 -5 16 -16q0 -4 -1 -9l-2 -11l-11 -48q-3 -14 -13 -14z" />
<glyph unicode="g" horiz-adv-x="521" d="M459 -4q0 -41 -9 -75t-36 -63q-26 -26 -73 -40.5t-103 -14.5q-32 0 -70.5 3t-67.5 10q-11 2 -14.5 6t-3.5 10q0 5 1 11t2 11l12 53q2 9 6 12t9 3q4 0 12 -2t17 -4q16 -4 38 -7t57 -3q20 0 38.5 3t33 11.5t23 22.5t8.5 36v78q-18 -15 -48 -26t-69 -11q-48 0 -82.5 17 t-57.5 47q-26 33 -36.5 82t-10.5 101q0 45 11 88.5t34 78t60 56t89 21.5q42 0 69.5 -14t44.5 -34v21q0 15 15 15h86q15 0 15 -15v-488zM338 380q-16 11 -34 18.5t-47 7.5q-27 0 -45.5 -12t-30 -31.5t-16 -44.5t-4.5 -51q0 -28 4 -55t14.5 -48t29 -34t47.5 -13q27 0 47.5 8 t34.5 18v237z" />
<glyph unicode="h" horiz-adv-x="521" d="M62 739q0 15 15 15h87q15 0 15 -15v-283q27 24 60 39.5t78 15.5q30 0 55.5 -8.5t47.5 -30.5q22 -23 30.5 -51t8.5 -65v-341q0 -15 -15 -15h-91q-15 0 -15 15v310q0 21 -3 34t-12 24q-14 17 -48 17q-25 0 -48.5 -9t-43.5 -23v-353q0 -15 -15 -15h-91q-15 0 -15 15v724z " />
<glyph unicode="i" horiz-adv-x="245" d="M197 662q0 -31 -21 -50t-54 -19q-30 0 -52.5 18t-22.5 51q0 35 20.5 54t55.5 19q30 0 52 -19t22 -54zM183 15q0 -15 -15 -15h-91q-15 0 -15 15v469q0 15 15 15h91q15 0 15 -15v-469z" />
<glyph unicode="j" horiz-adv-x="245" d="M-49 -88q6 0 10 -1.5t10 -3t14.5 -2.5t22.5 -1q33 0 43.5 13t10.5 50v518q0 14 15 14h91q6 0 10.5 -3.5t4.5 -10.5v-531q0 -79 -38 -115t-112 -36q-23 0 -45 1.5t-44 6.5q-17 4 -17 15q0 5 0.5 10t1.5 10l7 51q2 9 6 12t9 3zM197 662q0 -31 -21 -50t-54 -19 q-30 0 -52.5 18.5t-22.5 50.5q0 35 20.5 54t55.5 19q30 0 52 -19t22 -54z" />
<glyph unicode="k" horiz-adv-x="482" d="M183 250v-235q0 -15 -15 -15h-91q-15 0 -15 15v724q0 15 15 15h91q15 0 15 -15v-431l136 172q8 11 15.5 15t21.5 4h84q17 0 17 -14q0 -6 -9 -18l-150 -185l176 -249q8 -11 8 -19q0 -14 -17 -14h-89q-14 0 -20.5 4t-14.5 15z" />
<glyph unicode="l" horiz-adv-x="245" d="M183 15q0 -15 -15 -15h-91q-15 0 -15 15v724q0 15 15 15h91q15 0 15 -15v-724z" />
<glyph unicode="m" horiz-adv-x="790" d="M179 455q22 24 59 40t79 16q35 0 66 -12.5t52 -43.5q31 26 64 41t77 15q35 0 62 -9t49 -31q22 -23 31.5 -50.5t9.5 -64.5v-341q0 -15 -15 -15h-91q-15 0 -15 15v312q0 21 -3 34t-12 24q-8 9 -21 12.5t-30 3.5q-20 0 -43 -7.5t-41 -20.5q1 -4 1.5 -11.5t0.5 -12.5v-334 q0 -15 -15 -15h-91q-15 0 -15 15v311q0 21 -3 34t-12 24q-8 9 -21 12.5t-30 3.5q-23 0 -47 -9.5t-42 -23.5v-352q0 -15 -15 -15h-91q-15 0 -15 15v469q0 15 15 15h87q15 0 15 -15v-29z" />
<glyph unicode="n" horiz-adv-x="521" d="M179 453q25 25 60.5 41.5t77.5 16.5q30 0 55.5 -8.5t47.5 -30.5q22 -23 30.5 -51t8.5 -65v-341q0 -15 -15 -15h-91q-15 0 -15 15v311q0 21 -3 33.5t-12 23.5q-14 17 -51 17q-23 0 -47 -9.5t-42 -23.5v-352q0 -15 -15 -15h-91q-15 0 -15 15v469q0 15 15 15h87q15 0 15 -15 v-31z" />
<glyph unicode="o" horiz-adv-x="512" d="M477 251q0 -51 -11.5 -98.5t-37.5 -83.5t-68.5 -58t-104.5 -22q-61 0 -103 21t-68 57t-37.5 83.5t-11.5 100.5q0 48 12 95t39 83.5t70.5 59t105.5 22.5q59 0 100 -20.5t66.5 -55.5t37 -82.5t11.5 -101.5zM351 251q0 28 -3 56t-13 50t-28.5 36t-49.5 14q-27 0 -46 -14 t-30 -36t-16 -50t-5 -56q0 -27 4 -55t15 -51.5t30 -38.5t48 -15t47 13.5t28.5 36t14.5 51t4 59.5z" />
<glyph unicode="p" horiz-adv-x="529" d="M179 455q22 24 58 40t75 16q52 0 87 -19.5t56 -53t30 -79.5t9 -98q0 -47 -9 -95.5t-31.5 -87.5t-60 -64t-94.5 -25q-49 0 -76.5 14.5t-44.5 28.5v-204q0 -15 -15 -15h-86q-15 0 -15 15v656q0 15 15 15h87q15 0 15 -15v-29zM367 254q0 28 -4 54.5t-14.5 47t-29.5 33 t-48 12.5q-24 0 -46.5 -7.5t-42.5 -21.5v-245q12 -11 35 -21.5t52 -10.5q28 0 47 12.5t30.5 34.5t16 50.5t4.5 61.5z" />
<glyph unicode="q" horiz-adv-x="528" d="M349 31q-17 -15 -47.5 -28.5t-74.5 -13.5q-54 0 -94.5 24t-63.5 67q-18 33 -26 76.5t-8 91.5q0 46 13 93t43 85t78.5 61.5t119.5 23.5q46 0 88 -6t69 -18q12 -5 16 -13t4 -19v-627q0 -15 -15 -15h-87q-15 0 -15 15v203zM345 406q-18 5 -35.5 6.5t-29.5 1.5 q-33 0 -56 -14.5t-37 -38t-20 -54t-6 -63.5q0 -28 4 -56t15 -50.5t30.5 -36.5t51.5 -14q48 0 83 23v296z" />
<glyph unicode="r" horiz-adv-x="374" d="M340 376q-9 0 -18 1t-21 1q-37 0 -67.5 -12t-50.5 -27v-324q0 -15 -15 -15h-91q-15 0 -15 15v469q0 15 15 15h87q15 0 15 -15v-51q52 75 135 75q8 0 17.5 -0.5t17.5 -2.5q14 -3 14 -15v-7l-7 -89q-1 -11 -4 -14.5t-12 -3.5z" />
<glyph unicode="s" horiz-adv-x="396" d="M65 109q28 -10 53.5 -17t55.5 -7q28 0 47.5 12t19.5 40q0 27 -23 43.5t-58 31.5q-22 9 -45 20t-42 27.5t-31 40.5t-12 60q0 70 49.5 110.5t130.5 40.5q38 0 69 -5.5t54 -12.5q16 -5 16 -16q0 -4 -1 -9l-2 -11l-12 -51q-3 -14 -13 -14q-5 0 -22 5q-15 5 -38 9.5t-46 4.5 q-62 0 -62 -43q0 -25 21 -38.5t53 -27.5q22 -9 46 -21t43.5 -30t32 -43t12.5 -60q0 -73 -49.5 -116t-134.5 -43q-40 0 -76 7t-56 15q-7 3 -10.5 7.5t-3.5 15.5v68q0 12 13 12q5 0 9 -1.5t12 -3.5z" />
<glyph unicode="t" horiz-adv-x="369" d="M205 403v-241q0 -73 71 -73q25 0 40.5 4.5t25.5 4.5q12 0 12 -15v-60q0 -10 -2.5 -15.5t-13.5 -8.5q-22 -6 -45.5 -8t-47.5 -2q-35 0 -60 7t-43 19t-29 28t-17 34q-5 15 -7 34t-2 33v259h-77q-15 0 -15 15v66q0 15 15 15h77v114q0 14 15 14h88q15 0 15 -15v-113h118 q15 0 15 -15v-66q0 -15 -15 -15h-118z" />
<glyph unicode="u" horiz-adv-x="521" d="M342 46q-25 -25 -60.5 -41.5t-77.5 -16.5q-30 0 -55.5 8.5t-47.5 30.5q-22 23 -30.5 51t-8.5 65v341q0 15 15 15h91q15 0 15 -15v-311q0 -21 3 -33.5t12 -23.5q14 -17 51 -17q23 0 47 9.5t42 23.5v352q0 15 15 15h91q15 0 15 -15v-469q0 -15 -15 -15h-87q-15 0 -15 15v31 z" />
<glyph unicode="v" horiz-adv-x="469" d="M304 17q-7 -17 -29 -17h-84q-24 0 -29 17l-155 459q-2 6 -2 10q0 13 17 13h87q10 0 16.5 -3t9.5 -14l101 -346l101 346q3 11 9.5 14t16.5 3h84q17 0 17 -13q0 -4 -2 -10z" />
<glyph unicode="w" horiz-adv-x="678" d="M211 164l71 318q4 17 27 17h72q23 0 27 -17l72 -319l73 319q2 11 9 14t17 3h77q17 0 17 -13q0 -3 -1 -6.5t-3 -11.5l-130 -451q-5 -17 -30 -17h-59q-26 0 -30 17l-78 337l-74 -337q-5 -17 -30 -17h-63q-25 0 -30 17l-138 459q-2 6 -2 10q0 13 17 13h81q10 0 16.5 -3 t9.5 -14z" />
<glyph unicode="x" horiz-adv-x="449" d="M221 168l-88 -154q-4 -7 -9.5 -10.5t-16.5 -3.5h-86q-18 0 -18 13q0 6 5 14l146 233l-138 212q-5 8 -5 14q0 13 18 13h88q19 0 26 -12l80 -139l76 137q4 7 9.5 10.5t16.5 3.5h83q18 0 18 -13q0 -6 -5 -14l-129 -212l149 -233q5 -8 5 -14q0 -13 -18 -13h-85q-19 0 -26 12z " />
<glyph unicode="y" horiz-adv-x="461" d="M5 -85q12 0 23 -4.5t37 -4.5q37 0 53.5 15.5t26.5 39.5l23 58l-165 457q-2 6 -2 10q0 13 17 13h91q10 0 16 -3t10 -14l98 -314l95 313q3 11 9.5 14.5t16.5 3.5h85q17 0 17 -13q0 -4 -2 -10l-170 -480q-16 -44 -34 -80t-42 -61t-55.5 -38.5t-73.5 -13.5q-19 0 -42.5 1.5 t-43.5 6.5q-11 2 -14.5 6t-3.5 9t1 10l2 10l12 54q2 9 6 12t9 3z" />
<glyph unicode="z" horiz-adv-x="405" d="M239 399h-195q-15 0 -15 15v70q0 15 15 15h328q15 0 15 -15v-55q0 -10 -3 -16t-7 -11l-219 -299h217q15 0 15 -15v-73q0 -15 -15 -15h-345q-15 0 -15 15v59q0 10 3 16t7 11z" />
<glyph unicode="{" horiz-adv-x="322" d="M307 -28q15 0 15 -16v-63q0 -16 -15 -16h-91q-63 0 -91 31q-28 28 -28 84v258q0 29 -18.5 36.5t-44.5 9.5q-14 2 -14 16v71q0 6 3 10.5t11 5.5q12 1 23 2.5t20 7t14.5 16t5.5 30.5v172q0 31 6 56.5t20 43.5t37 28t56 10h90q15 0 15 -16v-63q0 -16 -15 -16h-54 q-23 0 -35 -12.5t-12 -42.5v-164q0 -39 -14.5 -65.5t-60.5 -35.5q44 -13 59.5 -39t15.5 -69v-212q0 -31 11.5 -44.5t36.5 -13.5h54z" />
<glyph unicode="|" horiz-adv-x="314" d="M115 706q0 15 15 15h77q15 0 15 -15v-851q0 -15 -15 -15h-77q-15 0 -15 15v851z" />
<glyph unicode="}" horiz-adv-x="322" d="M15.0186 -28q-14.999 0 -14.999 -16v-63q0 -16 14.999 -16h90.9951q62.9961 0 90.9941 31q27.998 28 27.998 84v258q0 29 18.499 36.5t44.4971 9.5q13.999 2 13.999 16v71q0 6 -3 10.5q-2.99902 4.5 -10.999 5.5q-11.999 1 -22.998 2.5q-11 1.5 -19.999 7 q-9 5.5 -14.499 16q-5.5 10.5 -5.5 30.5v172q0 31 -6 56.5q-5.99902 25.5 -19.998 43.5t-36.998 28t-55.9961 10h-89.9951q-14.999 0 -14.999 -16v-63q0 -16 14.999 -16h53.9971q22.998 0 34.998 -12.5q11.999 -12.5 11.999 -42.5v-164q0 -39 14.499 -65.5t60.4961 -35.5 q-43.9971 -13 -59.4961 -39t-15.499 -69v-212q0 -31 -11.499 -44.5q-11.5 -13.5 -36.498 -13.5h-53.9971z" />
<glyph unicode="~" horiz-adv-x="563" d="M419 410q0 13 8 21t19 8h51q13 0 20 -8t7 -21q0 -62 -27 -104q-14 -20 -36 -33t-53 -13q-36 0 -65.5 13t-55.5 31l-61 42q-13 8 -28.5 16.5t-32.5 8.5q-8 0 -13 -4.5t-7.5 -10.5t-3 -13t-0.5 -13q0 -15 -6.5 -21t-20.5 -6h-49q-12 0 -20 7t-8 20q0 24 7 50t19 46 q14 23 39.5 37.5t55.5 14.5q37 0 64.5 -13t53.5 -32l68 -49q11 -8 24.5 -14t23.5 -6q17 0 22 16t5 30z" />
<glyph unicode="&#xa1;" horiz-adv-x="277" d="M199 13q0 -16 -16 -16h-92q-6 0 -11 4.5t-5 11.5l11 497q0 15 16 15h70q16 0 16 -15zM64 656q0 30 19 51.5t56 21.5q35 0 55 -20t20 -53q0 -32 -20 -52.5t-55 -20.5q-32 0 -53.5 20t-21.5 53z" />
<glyph unicode="&#xa2;" d="M445 76q-12 -5 -27.5 -8.5t-32.5 -5.5v-105q0 -15 -15 -15h-69q-15 0 -15 15v105q-51 7 -85 30t-57 58t-32.5 79t-9.5 92q0 45 11 87.5t33.5 77t57 58t82.5 32.5v87q0 15 15 15h69q15 0 15 -15v-85q20 -3 36.5 -7t29.5 -9q16 -5 16 -16q0 -4 -1 -10l-2 -10l-11 -52 q-3 -14 -13 -14q-5 0 -10.5 1.5t-11.5 3.5q-14 5 -34.5 8.5t-38.5 3.5q-54 0 -86.5 -39.5t-32.5 -114.5q0 -36 6.5 -66t21.5 -51.5t38.5 -34t58.5 -12.5q23 0 38.5 3.5t35.5 8.5q8 2 12 3.5t9 1.5q13 0 13 -12v-65q0 -11 -3.5 -15.5t-10.5 -7.5z" />
<glyph unicode="&#xa3;" d="M251 328l-36 -230h275q15 0 15 -15v-68q0 -15 -15 -15h-454q-15 0 -15 15v68q0 15 15 15h54l36 230h-57q-14 0 -14 16v63q0 6 3.5 11t10.5 5h72l8 46q11 64 30.5 113t49.5 81.5t71.5 49t97.5 16.5q31 0 60.5 -5t50.5 -14q13 -7 13 -16q0 -5 -1 -10l-2 -11l-11 -48 q-3 -14 -13 -14q-13 0 -29 6t-48 6q-29 0 -51 -6t-38.5 -22t-28 -44t-20.5 -72l-11 -56h174q14 0 14 -16v-63q0 -16 -16 -16h-190z" />
<glyph unicode="&#xa4;" horiz-adv-x="617" d="M51 150l64 65q-19 28 -29.5 60t-10.5 68t10.5 68t29.5 60l-64 65l70 72l66 -67q27 16 57.5 25t64.5 9q33 0 63.5 -9.5t57.5 -25.5l66 68l70 -72l-64 -65q19 -28 29.5 -60t10.5 -68q0 -35 -10.5 -67.5t-29.5 -60.5l64 -65l-70 -72l-65 68q-27 -17 -57 -26t-65 -9 q-34 0 -64.5 9t-57.5 26l-66 -68zM309 199q29 0 54.5 11t44 30.5t29.5 46t11 56.5t-11 56t-29.5 45.5t-44 31t-54.5 11.5t-54.5 -11.5t-44.5 -31t-30 -45.5t-11 -56t11 -56.5t30 -46t44.5 -30.5t54.5 -11z" />
<glyph unicode="&#xa5;" d="M210 137h-130q-15 0 -15 16v53q0 6 4 11t11 5h130v84h-130q-15 0 -15 16v53q0 6 4 11t11 5h99l-165 300q-6 12 -6 17q0 13 17 13h87q10 0 15.5 -3.5t10.5 -13.5l133 -260l136 260q5 10 10.5 13.5t15.5 3.5h85q17 0 17 -13q0 -5 -6 -17l-168 -300h97q6 -1 10 -6t4 -10v-53 q0 -16 -16 -16h-130v-84h132q6 -1 10 -6t4 -10v-53q0 -16 -16 -16h-130v-122q0 -15 -16 -15h-84q-16 0 -16 15v122z" />
<glyph unicode="&#xa6;" horiz-adv-x="314" d="M222 -145q0 -15 -15 -15h-77q-15 0 -15 15v332q0 15 15 15h77q15 0 15 -15v-332zM222 412q0 -15 -15 -15h-77q-15 0 -15 15v294q0 15 15 15h77q15 0 15 -15v-294z" />
<glyph unicode="&#xa7;" horiz-adv-x="474" d="M50 303q0 51 24 88t55 65q-27 25 -38.5 56t-11.5 56q0 75 49.5 118t135.5 43q42 0 75.5 -8t51.5 -13q15 -5 18.5 -9.5t3.5 -9.5t-1 -11l-2 -10l-12 -53q-3 -14 -13 -14q-7 0 -24 7q-15 6 -39.5 13.5t-53.5 7.5q-64 0 -64 -52q0 -32 26 -54.5t68 -48.5q26 -17 49 -34 t40 -37.5t27 -45t10 -55.5q0 -51 -25.5 -92t-58.5 -70q23 -23 36.5 -50.5t13.5 -61.5q0 -69 -47 -111t-138 -42q-44 0 -76.5 6.5t-50.5 12.5q-15 5 -18.5 10.5t-3.5 10.5t1 11l2 10l12 53q3 14 13 14q5 0 10 -2l14 -5q15 -6 39 -13t53 -7q35 0 50.5 13t15.5 38 q0 32 -28.5 56.5t-70.5 50.5q-53 33 -85 72t-32 97zM169 323q0 -26 15 -46.5t37 -37.5l49 -40q18 22 26 44t8 49q0 22 -12 39t-35 34l-53 37q-35 -38 -35 -79z" />
<glyph unicode="&#xa8;" horiz-adv-x="460" d="M400 639q0 -28 -19 -45t-48 -17q-26 0 -45.5 16t-19.5 46q0 32 18.5 49t47.5 17q26 0 46 -17t20 -49zM191 639q0 -28 -19 -45t-48 -17q-26 0 -45.5 16t-19.5 46q0 32 18.5 49t47.5 17q26 0 46 -17t20 -49z" />
<glyph unicode="&#xa9;" horiz-adv-x="878" d="M828 358q0 -77 -30.5 -144.5t-83.5 -117.5t-125 -78.5t-155 -28.5t-153.5 28.5t-121.5 78.5t-80 117.5t-29 144.5t29 144.5t80 118t121.5 79.5t153.5 29t155 -29t125 -79.5t83.5 -118t30.5 -144.5zM733 358q0 60 -23 112.5t-63.5 91.5t-95.5 61.5t-118 22.5t-115.5 -22.5 t-91 -61.5t-60 -91.5t-21.5 -112.5t21.5 -112.5t60 -90.5t91 -60t115.5 -22t118 22t95.5 60t63.5 90.5t23 112.5zM538 168q-8 -3 -32 -7.5t-55 -4.5q-53 0 -88.5 17.5t-57.5 46.5t-31 66.5t-9 76.5q0 34 9.5 71t31 67.5t57 50t87.5 19.5q24 0 47 -3.5t41 -8.5q12 -3 15 -7 t3 -10q0 -5 -2 -15l-8 -33q-3 -12 -11 -12q-3 0 -19 4q-8 2 -23.5 4.5t-30.5 2.5q-28 0 -47.5 -11t-31.5 -29t-17.5 -41.5t-5.5 -48.5q0 -27 5.5 -50.5t17.5 -41t31 -27.5t46 -10q14 0 27 2t24 4q9 2 16 4t12 2q15 0 15 -18v-39q0 -10 -4.5 -14.5t-11.5 -6.5z" />
<glyph unicode="&#xaa;" horiz-adv-x="417" d="M207 506q-35 0 -51.5 -16t-16.5 -44q0 -29 14.5 -44t38.5 -15q34 0 60 17v102h-45zM156 313q-54 0 -85 31.5t-31 97.5q0 36 13 61t36 40.5t55 23t70 7.5h38v20q0 29 -17 41t-44 12q-14 0 -30.5 -2.5t-28.5 -5.5l-22 -5q-8 -2 -14 -2t-9 3t-5 12l-8 31q-2 5 -3 9.5t-1 9.5 q0 8 5 11t15 6q5 1 17 4t27.5 5t34 4t36.5 2q67 0 107 -29.5t40 -103.5v-256q0 -19 -18 -19h-66q-13 0 -13 15v15q-12 -12 -38 -25t-61 -13z" />
<glyph unicode="&#xab;" horiz-adv-x="540" d="M46 240q-6 6 -6 15v21q0 6 4 12l101 138q8 11 15.5 15t21.5 4h71q17 0 17 -14q0 -6 -9 -18l-105 -141l108 -147q9 -12 9 -18q0 -14 -17 -14h-74q-14 0 -21.5 4t-15.5 15zM273 240q-6 6 -6 15v21q0 6 4 12l101 138q8 11 15.5 15t21.5 4h71q17 0 17 -14q0 -6 -9 -18 l-105 -141l108 -147q9 -12 9 -18q0 -14 -17 -14h-74q-14 0 -21.5 4t-15.5 15z" />
<glyph unicode="&#xac;" d="M452 187q0 -15 -15 -15h-54q-15 0 -15 15v104h-261q-15 0 -15 15v54q0 15 15 15h329q16 0 16 -17v-171z" />
<glyph unicode="&#xad;" horiz-adv-x="439" d="M379 343q16 0 16 -15v-71q0 -15 -15 -15h-313q-15 0 -15 15v71q0 15 15 15h312z" />
<glyph unicode="&#xae;" horiz-adv-x="878" d="M828 358q0 -77 -30.5 -144.5t-83.5 -117.5t-125 -78.5t-155 -28.5t-153.5 28.5t-121.5 78.5t-80 117.5t-29 144.5t29 144.5t80 118t121.5 79.5t153.5 29t155 -29t125 -79.5t83.5 -118t30.5 -144.5zM733 358q0 60 -23 112.5t-63.5 91.5t-95.5 61.5t-118 22.5t-115.5 -22.5 t-91 -61.5t-60 -91.5t-21.5 -112.5t21.5 -112.5t60 -90.5t91 -60t115.5 -22t118 22t95.5 60t63.5 90.5t23 112.5zM527 173q-5 0 -10.5 2t-10.5 10l-79 134h-42v-132q0 -5 -3.5 -9.5t-11.5 -4.5h-57q-8 0 -11.5 4.5t-3.5 9.5v355q0 18 18 18h114q32 0 56 -3.5t44 -12.5 q32 -14 45.5 -41.5t13.5 -59.5q0 -35 -19 -65.5t-57 -46.5l85 -136q2 -2 3.5 -5.5t1.5 -7.5q0 -9 -13 -9h-63zM501 440q0 24 -14.5 39t-51.5 15h-49v-110h49q38 0 52 16.5t14 39.5z" />
<glyph unicode="&#xaf;" horiz-adv-x="460" d="M373 693q16 0 16 -15v-59q0 -15 -15 -15h-288q-15 0 -15 15v59q0 15 15 15h287z" />
<glyph unicode="&#xb0;" horiz-adv-x="423" d="M352 608q0 -28 -10 -53t-28 -44t-44 -30t-59 -11q-32 0 -57.5 10.5t-44.5 29t-29 43.5t-10 55q0 28 10 54t28 45.5t44 31t59 11.5q31 0 57 -11t44.5 -30.5t29 -45t10.5 -55.5zM268 608q0 23 -14 43t-43 20q-26 0 -41.5 -18.5t-15.5 -44.5q0 -25 14.5 -43t42.5 -18 q26 0 41.5 17.5t15.5 43.5z" />
<glyph unicode="&#xb1;" d="M238 141q-15 0 -15 15v135h-120q-15 0 -15 15v54q0 15 15 15h120v133q0 15 15 15h61q15 0 15 -15v-133h123q16 0 16 -15v-54q0 -15 -15 -15h-124v-134q0 -16 -15 -16h-61zM112 -3q-15 0 -15 15v54q0 15 15 15h329q16 0 16 -15v-54q0 -15 -15 -15h-330z" />
<glyph unicode="&#xb2;" horiz-adv-x="400" d="M92 710q19 7 48 13t66 6q67 0 104.5 -34.5t37.5 -95.5q0 -44 -16 -77t-45 -69q-15 -18 -33.5 -38t-38.5 -37h127q19 0 19 -18v-55q0 -18 -22 -18h-250q-24 0 -24 18v42q0 13 10 22q37 30 63.5 55.5t50.5 54.5q28 33 40 59.5t12 44.5q0 32 -16.5 43.5t-39.5 11.5 q-18 0 -30.5 -2t-27.5 -6q-9 -2 -15.5 -4t-13.5 -2q-6 0 -8 4t-4 10l-8 40q-1 2 -1.5 7t-0.5 7q0 13 16 18z" />
<glyph unicode="&#xb3;" horiz-adv-x="400" d="M68 387q12 0 34.5 -8.5t67.5 -8.5q26 0 44 11t18 40q0 26 -18 39.5t-47 13.5h-47q-23 0 -23 18v39q0 8 5.5 13t17.5 5h45q34 0 48 13.5t14 33.5q0 15 -5 24.5t-13 14.5t-17 7t-18 2q-29 0 -47.5 -5.5t-29.5 -5.5q-10 0 -12 13l-7 36q-2 10 -2 15q0 9 5 12.5t11 5.5 q23 7 47.5 10.5t57.5 3.5q27 0 52 -6.5t44 -20t30 -35t11 -51.5q0 -37 -19 -59t-42 -36q32 -15 49.5 -41.5t17.5 -59.5q0 -69 -44 -103.5t-123 -34.5q-34 0 -57.5 4.5t-41.5 10.5q-9 3 -13 7.5t-4 14.5v54q0 14 11 14z" />
<glyph unicode="&#xb4;" horiz-adv-x="460" d="M208 722q6 15 19 15h78q5 0 10.5 -2.5t5.5 -10.5q0 -5 -3 -12l-60 -130q-4 -8 -7.5 -12t-12.5 -4h-70q-17 0 -17 12q0 4 4 14z" />
<glyph unicode="&#xb5;" horiz-adv-x="521" d="M342 46q-25 -25 -60.5 -41.5t-77.5 -16.5q-11 0 -21 1v-161q0 -15 -15 -15h-91q-15 0 -15 15v656q0 15 15 15h91q15 0 15 -15v-311q0 -21 3 -33.5t12 -23.5q14 -17 51 -17q23 0 47 9.5t42 23.5v352q0 15 15 15h91q15 0 15 -15v-469q0 -15 -15 -15h-87q-15 0 -15 15v31z " />
<glyph unicode="&#xb6;" horiz-adv-x="589" d="M35 497q0 50 15.5 91.5t45 71t71 45.5t93.5 16h300q7 0 10.5 -4.5t3.5 -10.5v-60q0 -15 -15 -15h-39v-740q0 -6 -4.5 -10t-10.5 -4h-65q-15 0 -15 15v739h-84v-740q0 -6 -4.5 -10t-10.5 -4h-65q-15 0 -15 15v372q-46 0 -84.5 16.5t-66.5 47.5t-44 73.5t-16 95.5z" />
<glyph unicode="&#xb7;" horiz-adv-x="290" d="M227 354q0 -33 -21.5 -56.5t-61.5 -23.5q-36 0 -58.5 22t-22.5 57t22.5 57t58.5 22t59.5 -21.5t23.5 -56.5z" />
<glyph unicode="&#xb8;" horiz-adv-x="460" d="M320 -116q0 -15 -5.5 -29.5t-17.5 -26t-31.5 -19t-46.5 -7.5q-24 0 -41 3.5t-26 6.5q-14 5 -14 16q0 2 1 8t2 8l5 22q2 8 4 10.5t8 2.5q7 0 18 -5.5t31 -5.5q13 0 19 7.5t6 15.5q0 12 -8.5 19t-23.5 12q-12 3 -12 16q0 2 1 7.5t2 9.5l10 54l69 -2l-10 -49 q29 -12 44.5 -30t15.5 -44z" />
<glyph unicode="&#xb9;" horiz-adv-x="400" d="M95 620q-10 -2 -16 -2q-13 0 -13 16v48q0 14 17 18l68 15q22 6 45 6h48q16 0 16 -15v-336h79q15 0 15 -15v-53q0 -15 -15 -15h-258q-15 0 -15 15v53q0 15 15 15h80v263z" />
<glyph unicode="&#xba;" horiz-adv-x="474" d="M419 525q0 -41 -9.5 -79t-31 -67t-57 -46t-86.5 -17q-50 0 -84 17t-55.5 45.5t-31 66t-9.5 78.5q0 38 9.5 75t31.5 66t56.5 47t85.5 18q50 0 84.5 -15.5t56 -43t31 -65t9.5 -80.5zM307 523q0 22 -3 44t-10.5 39t-21 28t-35.5 11q-20 0 -33.5 -11t-22 -28t-12.5 -39 t-4 -44t3 -44t11.5 -40t22.5 -29t35 -11t34.5 10t21.5 27t11 39.5t3 47.5z" />
<glyph unicode="&#xbb;" horiz-adv-x="530" d="M168 112q-8 -11 -15.5 -15t-21.5 -4h-74q-17 0 -17 14q0 6 9 18l108 147l-105 141q-9 12 -9 18q0 14 17 14h71q14 0 21.5 -4t15.5 -15l101 -138q4 -6 4 -12v-21q0 -9 -6 -15zM385 112q-8 -11 -15.5 -15t-21.5 -4h-74q-17 0 -17 14q0 6 9 18l108 147l-105 141q-9 12 -9 18 q0 14 17 14h71q14 0 21.5 -4t15.5 -15l101 -138q4 -6 4 -12v-21q0 -9 -6 -15z" />
<glyph unicode="&#xbc;" horiz-adv-x="960" d="M89 620q-10 -2 -16 -2q-13 0 -13 16v48q0 14 17 18l68 15q22 6 45 6h48q16 0 16 -15v-336h79q15 0 15 -15v-53q0 -15 -15 -15h-258q-15 0 -15 15v53q0 15 15 15h80v263zM391 19q-7 -13 -15 -16t-22 -3h-58q-18 0 -18 12q0 5 2.5 9.5t4.5 8.5l359 672q7 13 15 16t22 3h56 q17 0 17 -12q0 -5 -2 -9.5t-4 -8.5zM759 322l-100 -142h100v142zM752 424q5 8 9.5 9.5t9.5 1.5h76q10 0 10 -9v-246h46q9 0 9 -9v-50q0 -9 -9 -9h-46v-102q0 -9 -10 -9h-78q-10 0 -10 9v102h-167q-9 0 -9 9v49q0 11 6 19z" />
<glyph unicode="&#xbd;" horiz-adv-x="960" d="M83 620q-10 -2 -16 -2q-13 0 -13 16v48q0 14 17 18l68 15q22 6 45 6h48q16 0 16 -15v-336h79q15 0 15 -15v-53q0 -15 -15 -15h-258q-15 0 -15 15v53q0 15 15 15h80v263zM368 19q-7 -13 -15 -16t-22 -3h-58q-18 0 -18 12q0 5 2.5 9.5t4.5 8.5l359 672q7 13 15 16t22 3h56 q17 0 17 -12q0 -5 -2 -9.5t-4 -8.5zM654 424q19 7 48 13t66 6q67 0 104.5 -34.5t37.5 -95.5q0 -44 -16 -77t-45 -69q-15 -18 -33.5 -38t-38.5 -37h127q19 0 19 -18v-55q0 -18 -22 -18h-250q-24 0 -24 18v42q0 13 10 22q37 30 63.5 55.5t50.5 54.5q28 33 40 59.5t12 44.5 q0 32 -16.5 43.5t-39.5 11.5q-18 0 -30.5 -2t-27.5 -6q-9 -2 -15.5 -4t-13.5 -2q-6 0 -8 4t-4 10l-8 40q-1 2 -1.5 7t-0.5 7q0 13 16 18z" />
<glyph unicode="&#xbe;" horiz-adv-x="960" d="M78 387q12 0 34.5 -8.5t67.5 -8.5q26 0 44 11t18 40q0 26 -18 39.5t-47 13.5h-47q-23 0 -23 18v39q0 8 5.5 13t17.5 5h45q34 0 48 13.5t14 33.5q0 15 -5 24.5t-13 14.5t-17 7t-18 2q-29 0 -47.5 -5.5t-29.5 -5.5q-10 0 -12 13l-7 36q-2 10 -2 15q0 9 5 12.5t11 5.5 q23 7 47.5 10.5t57.5 3.5q27 0 52 -6.5t44 -20t30 -35t11 -51.5q0 -37 -19 -59t-42 -36q32 -15 49.5 -41.5t17.5 -59.5q0 -69 -44 -103.5t-123 -34.5q-34 0 -57.5 4.5t-41.5 10.5q-9 3 -13 7.5t-4 14.5v54q0 14 11 14zM369 19q-7 -13 -15 -16t-22 -3h-58q-18 0 -18 12 q0 5 2.5 9.5t4.5 8.5l359 672q7 13 15 16t22 3h56q17 0 17 -12q0 -5 -2 -9.5t-4 -8.5zM750 322l-100 -142h100v142zM743 424q5 8 9.5 9.5t9.5 1.5h76q10 0 10 -9v-246h46q9 0 9 -9v-50q0 -9 -9 -9h-46v-102q0 -9 -10 -9h-78q-10 0 -10 9v102h-167q-9 0 -9 9v49q0 11 6 19z " />
<glyph unicode="&#xbf;" horiz-adv-x="415" d="M376 18q-37 -14 -73.5 -21.5t-81.5 -7.5q-92 0 -144 45t-52 129q0 37 11.5 69.5t31 62t46 55t56.5 49.5l36 28v82q0 15 16 15h88q15 0 17 -15v-100q0 -21 -16 -33l-49 -37q-22 -16 -42.5 -35t-36.5 -39.5t-25.5 -43t-9.5 -46.5q0 -42 27.5 -62.5t67.5 -20.5q30 0 55 6 t49 16q6 2 11 4t10 2q11 0 14 -15l10 -45l2 -10q1 -6 1 -11q0 -6 -3.5 -11t-15.5 -10zM195 656q0 30 19 51.5t56 21.5q35 0 55 -20t20 -53q0 -32 -20 -52.5t-55 -20.5q-32 0 -53.5 20t-21.5 53z" />
<glyph unicode="&#xc0;" horiz-adv-x="599" d="M231 704q6 17 30 17h84q24 0 29 -16l220 -682q2 -6 2 -10q0 -13 -17 -13h-91q-10 0 -16.5 3t-9.5 13l-54 176h-221l-54 -175q-3 -11 -9.5 -14t-16.5 -3h-87q-17 0 -17 13q0 4 2 10zM301 558l-80 -262h154zM348 800q4 -10 4 -14q0 -12 -17 -12h-64q-17 0 -26 16l-53 89 q-2 4 -2.5 7t-0.5 5q0 8 5.5 10.5t10.5 2.5h79q12 0 20 -15z" />
<glyph unicode="&#xc1;" horiz-adv-x="599" d="M231 704q6 17 30 17h84q24 0 29 -16l220 -682q2 -6 2 -10q0 -13 -17 -13h-91q-10 0 -16.5 3t-9.5 13l-54 176h-221l-54 -175q-3 -11 -9.5 -14t-16.5 -3h-87q-17 0 -17 13q0 4 2 10zM301 558l-80 -262h154zM306 889q7 15 20 15h79q5 0 10.5 -2.5t5.5 -10.5q0 -2 -0.5 -5 t-2.5 -7l-53 -89q-9 -16 -26 -16h-64q-17 0 -17 12q0 4 4 14z" />
<glyph unicode="&#xc2;" horiz-adv-x="599" d="M231 704q6 17 30 17h84q24 0 29 -16l220 -682q2 -6 2 -10q0 -13 -17 -13h-91q-10 0 -16.5 3t-9.5 13l-54 176h-221l-54 -175q-3 -11 -9.5 -14t-16.5 -3h-87q-17 0 -17 13q0 4 2 10zM301 558l-80 -262h154zM445 798q3 -4 6 -7.5t3 -7.5q0 -9 -15 -9h-73q-8 0 -13 4t-10 9 l-41 59l-41 -59q-5 -6 -9 -9.5t-12 -3.5h-77q-13 0 -13 9q0 6 7 15l76 93q5 5 10.5 9t13.5 4h91q8 0 12 -4l9 -9z" />
<glyph unicode="&#xc3;" horiz-adv-x="599" d="M231 704q6 17 30 17h84q24 0 29 -16l220 -682q2 -6 2 -10q0 -13 -17 -13h-91q-10 0 -16.5 3t-9.5 13l-54 176h-221l-54 -175q-3 -11 -9.5 -14t-16.5 -3h-87q-17 0 -17 13q0 4 2 10zM301 558l-80 -262h154zM369 859q9 0 14 10t5 23q0 18 18 18h39q10 0 13 -5t3 -14 q0 -51 -17 -82q-11 -17 -25 -25t-35 -8q-27 0 -45 8t-40 24l-30 22q-14 11 -20.5 14.5t-13.5 3.5q-18 0 -18 -34q0 -16 -15 -16h-40q-7 0 -12.5 3.5t-5.5 14.5q0 21 4 40.5t13 35.5q10 17 25.5 27.5t40.5 10.5q24 0 38 -6t28 -17l41 -31q8 -6 17 -11.5t18 -5.5z" />
<glyph unicode="&#xc4;" horiz-adv-x="599" d="M231 704q6 17 30 17h84q24 0 29 -16l220 -682q2 -6 2 -10q0 -13 -17 -13h-91q-10 0 -16.5 3t-9.5 13l-54 176h-221l-54 -175q-3 -11 -9.5 -14t-16.5 -3h-87q-17 0 -17 13q0 4 2 10zM301 558l-80 -262h154zM474 843q0 -28 -19 -45t-48 -17q-26 0 -45.5 16t-19.5 46 q0 32 18.5 49t47.5 17q26 0 46 -17t20 -49zM265 843q0 -28 -19 -45t-48 -17q-26 0 -45.5 16t-19.5 46q0 32 18.5 49t47.5 17q26 0 46 -17t20 -49z" />
<glyph unicode="&#xc5;" horiz-adv-x="599" d="M231 704q6 17 30 17h84q24 0 29 -16l220 -682q2 -6 2 -10q0 -13 -17 -13h-91q-10 0 -16.5 3t-9.5 13l-54 176h-221l-54 -175q-3 -11 -9.5 -14t-16.5 -3h-87q-17 0 -17 13q0 4 2 10zM301 558l-80 -262h154zM414 802q0 -22 -8 -42t-22.5 -35t-35.5 -24t-46 -9 q-51 0 -82 31.5t-31 78.5q0 22 8 43t22.5 36.5t35.5 25t47 9.5q25 0 45.5 -9t35.5 -24.5t23 -36.5t8 -44zM348 802q0 20 -11.5 35t-34.5 15q-21 0 -34 -14t-13 -36q0 -20 12.5 -33.5t34.5 -13.5q20 0 33 13.5t13 33.5z" />
<glyph unicode="&#xc6;" horiz-adv-x="858" d="M443 0q-16 0 -16 15v180h-194l-90 -176q-6 -11 -13.5 -15t-21.5 -4h-90q-15 0 -15 12q0 5 3 11t8 14l345 670q3 5 8 9.5t14 4.5h427q15 0 15 -16v-77q0 -16 -15 -16h-253v-193h242q15 0 15 -16v-74q0 -16 -15 -16h-242v-205h263q15 0 15 -16v-76q0 -16 -15 -16h-375z M427 299v298l-145 -298h145z" />
<glyph unicode="&#xc7;" horiz-adv-x="502" d="M412 -116q0 -15 -5.5 -29.5t-17.5 -26t-31.5 -19t-46.5 -7.5q-24 0 -41 3.5t-26 6.5q-14 5 -14 16q0 2 1 8t2 8l5 22q2 8 4 10.5t8 2.5q7 0 18 -5.5t31 -5.5q13 0 19 7.5t6 15.5q0 12 -8.5 19t-23.5 12q-12 3 -12 16q0 2 1 7.5t2 9.5l6 36q-72 7 -119 41t-74.5 84.5 t-38 113.5t-10.5 129q0 64 13 130t46.5 119.5t90 87t143.5 33.5q33 0 70 -5.5t64 -16.5q10 -4 13 -8t3 -9t-1 -10l-2 -11l-14 -59q-3 -14 -13 -14q-5 0 -11 1.5t-17 5.5q-17 5 -37 9t-46 4q-47 0 -79.5 -21.5t-52 -57.5t-28 -83t-8.5 -98q0 -48 7 -94t25.5 -82t51 -58 t82.5 -22q32 0 54.5 4.5t43.5 12.5q18 7 25 7q14 0 14 -13v-76q0 -12 -4 -16.5t-11 -7.5q-22 -9 -51 -14t-60 -7l-6 -32q29 -12 44.5 -30t15.5 -44z" />
<glyph unicode="&#xc8;" horiz-adv-x="510" d="M96 0q-16 0 -16 15v691q0 15 16 15h365q15 0 15 -16v-77q0 -16 -15 -16h-253v-193h242q15 0 15 -16v-74q0 -16 -15 -16h-242v-205h263q15 0 15 -16v-76q0 -16 -15 -16h-375zM331 800q4 -10 4 -14q0 -12 -17 -12h-64q-17 0 -26 16l-53 89q-2 4 -2.5 7t-0.5 5q0 8 5.5 10.5 t10.5 2.5h79q12 0 20 -15z" />
<glyph unicode="&#xc9;" horiz-adv-x="510" d="M96 0q-16 0 -16 15v691q0 15 16 15h365q15 0 15 -16v-77q0 -16 -15 -16h-253v-193h242q15 0 15 -16v-74q0 -16 -15 -16h-242v-205h263q15 0 15 -16v-76q0 -16 -15 -16h-375zM278 889q7 15 20 15h79q5 0 10.5 -2.5t5.5 -10.5q0 -2 -0.5 -5t-2.5 -7l-53 -89q-9 -16 -26 -16 h-64q-17 0 -17 12q0 4 4 14z" />
<glyph unicode="&#xca;" horiz-adv-x="510" d="M96 0q-16 0 -16 15v691q0 15 16 15h365q15 0 15 -16v-77q0 -16 -15 -16h-253v-193h242q15 0 15 -16v-74q0 -16 -15 -16h-242v-205h263q15 0 15 -16v-76q0 -16 -15 -16h-375zM425 798q3 -4 6 -7.5t3 -7.5q0 -9 -15 -9h-73q-8 0 -13 4t-10 9l-41 59l-41 -59q-5 -6 -9 -9.5 t-12 -3.5h-77q-13 0 -13 9q0 6 7 15l76 93q5 5 10.5 9t13.5 4h91q8 0 12 -4l9 -9z" />
<glyph unicode="&#xcb;" horiz-adv-x="510" d="M96 0q-16 0 -16 15v691q0 15 16 15h365q15 0 15 -16v-77q0 -16 -15 -16h-253v-193h242q15 0 15 -16v-74q0 -16 -15 -16h-242v-205h263q15 0 15 -16v-76q0 -16 -15 -16h-375zM451 843q0 -28 -19 -45t-48 -17q-26 0 -45.5 16t-19.5 46q0 32 18.5 49t47.5 17q26 0 46 -17 t20 -49zM242 843q0 -28 -19 -45t-48 -17q-26 0 -45.5 16t-19.5 46q0 32 18.5 49t47.5 17q26 0 46 -17t20 -49z" />
<glyph unicode="&#xcc;" horiz-adv-x="288" d="M208 15q0 -15 -16 -15h-96q-16 0 -16 15v691q0 15 16 15h96q16 0 16 -15v-691zM199 800q4 -10 4 -14q0 -12 -17 -12h-64q-17 0 -26 16l-53 89q-2 4 -2.5 7t-0.5 5q0 8 5.5 10.5t10.5 2.5h79q12 0 20 -15z" />
<glyph unicode="&#xcd;" horiz-adv-x="288" d="M208 15q0 -15 -16 -15h-96q-16 0 -16 15v691q0 15 16 15h96q16 0 16 -15v-691zM141 889q7 15 20 15h79q5 0 10.5 -2.5t5.5 -10.5q0 -2 -0.5 -5t-2.5 -7l-53 -89q-9 -16 -26 -16h-64q-17 0 -17 12q0 4 4 14z" />
<glyph unicode="&#xce;" horiz-adv-x="288" d="M208 15q0 -15 -16 -15h-96q-16 0 -16 15v691q0 15 16 15h96q16 0 16 -15v-691zM290 798q3 -4 6 -7.5t3 -7.5q0 -9 -15 -9h-73q-8 0 -13 4t-10 9l-41 59l-41 -59q-5 -6 -9 -9.5t-12 -3.5h-77q-13 0 -13 9q0 6 7 15l76 93q5 5 10.5 9t13.5 4h91q8 0 12 -4l9 -9z" />
<glyph unicode="&#xcf;" horiz-adv-x="288" d="M208 15q0 -15 -16 -15h-96q-16 0 -16 15v691q0 15 16 15h96q16 0 16 -15v-691zM319 843q0 -28 -19 -45t-48 -17q-26 0 -45.5 16t-19.5 46q0 32 18.5 49t47.5 17q26 0 46 -17t20 -49zM110 843q0 -28 -19 -45t-48 -17q-26 0 -45.5 16t-19.5 46q0 32 18.5 49t47.5 17 q26 0 46 -17t20 -49z" />
<glyph unicode="&#xd0;" horiz-adv-x="620" d="M263 721q166 0 244 -95q78 -96 78 -266q0 -167 -80 -263q-79 -97 -232 -97h-177q-16 0 -16 15v308h-49q-15 0 -15 15v64q0 15 15 15h49v289q0 15 16 15h167zM455 360q0 120 -41 186q-20 31 -49 48.5t-75 17.5h-83v-195h120q16 0 16 -15v-64q0 -15 -15 -15h-121v-216h89 q36 0 66 17t50 48q43 64 43 188z" />
<glyph unicode="&#xd1;" horiz-adv-x="645" d="M565 15q0 -15 -16 -15h-77q-14 0 -20 13l-248 444v-442q0 -15 -16 -15h-92q-16 0 -16 15v691q0 15 16 15h74q14 0 20 -12l251 -465v462q0 15 16 15h92q16 0 16 -15v-691zM389 859q9 0 14 10t5 23q0 18 18 18h39q10 0 13 -5t3 -14q0 -51 -17 -82q-11 -17 -25 -25t-35 -8 q-27 0 -45 8t-40 24l-30 22q-14 11 -20.5 14.5t-13.5 3.5q-18 0 -18 -34q0 -16 -15 -16h-40q-7 0 -12.5 3.5t-5.5 14.5q0 21 4 40.5t13 35.5q10 17 25.5 27.5t40.5 10.5q24 0 38 -6t28 -17l41 -31q8 -6 17 -11.5t18 -5.5z" />
<glyph unicode="&#xd2;" horiz-adv-x="646" d="M599 362q0 -62 -13 -128t-44.5 -120.5t-84.5 -89.5t-134 -35q-84 0 -137.5 31.5t-84.5 83.5t-42.5 118.5t-11.5 136.5q0 61 12.5 126.5t43.5 119.5t84.5 89t136.5 35q81 0 134 -31.5t84.5 -83t44 -117.5t12.5 -135zM467 360q0 38 -5 82t-20 82t-43 63.5t-75 25.5 q-45 0 -73 -24t-43.5 -61t-21.5 -82t-6 -86q0 -37 5 -82.5t20 -85t43 -66.5t75 -27q45 0 73 25.5t43.5 64t21.5 84.5t6 87zM374 800q4 -10 4 -14q0 -12 -17 -12h-64q-17 0 -26 16l-53 89q-2 4 -2.5 7t-0.5 5q0 8 5.5 10.5t10.5 2.5h79q12 0 20 -15z" />
<glyph unicode="&#xd3;" horiz-adv-x="646" d="M599 362q0 -62 -13 -128t-44.5 -120.5t-84.5 -89.5t-134 -35q-84 0 -137.5 31.5t-84.5 83.5t-42.5 118.5t-11.5 136.5q0 61 12.5 126.5t43.5 119.5t84.5 89t136.5 35q81 0 134 -31.5t84.5 -83t44 -117.5t12.5 -135zM467 360q0 38 -5 82t-20 82t-43 63.5t-75 25.5 q-45 0 -73 -24t-43.5 -61t-21.5 -82t-6 -86q0 -37 5 -82.5t20 -85t43 -66.5t75 -27q45 0 73 25.5t43.5 64t21.5 84.5t6 87zM330 889q7 15 20 15h79q5 0 10.5 -2.5t5.5 -10.5q0 -2 -0.5 -5t-2.5 -7l-53 -89q-9 -16 -26 -16h-64q-17 0 -17 12q0 4 4 14z" />
<glyph unicode="&#xd4;" horiz-adv-x="646" d="M599 362q0 -62 -13 -128t-44.5 -120.5t-84.5 -89.5t-134 -35q-84 0 -137.5 31.5t-84.5 83.5t-42.5 118.5t-11.5 136.5q0 61 12.5 126.5t43.5 119.5t84.5 89t136.5 35q81 0 134 -31.5t84.5 -83t44 -117.5t12.5 -135zM467 360q0 38 -5 82t-20 82t-43 63.5t-75 25.5 q-45 0 -73 -24t-43.5 -61t-21.5 -82t-6 -86q0 -37 5 -82.5t20 -85t43 -66.5t75 -27q45 0 73 25.5t43.5 64t21.5 84.5t6 87zM471 798q3 -4 6 -7.5t3 -7.5q0 -9 -15 -9h-73q-8 0 -13 4t-10 9l-41 59l-41 -59q-5 -6 -9 -9.5t-12 -3.5h-77q-13 0 -13 9q0 6 7 15l76 93 q5 5 10.5 9t13.5 4h91q8 0 12 -4l9 -9z" />
<glyph unicode="&#xd5;" horiz-adv-x="646" d="M599 362q0 -62 -13 -128t-44.5 -120.5t-84.5 -89.5t-134 -35q-84 0 -137.5 31.5t-84.5 83.5t-42.5 118.5t-11.5 136.5q0 61 12.5 126.5t43.5 119.5t84.5 89t136.5 35q81 0 134 -31.5t84.5 -83t44 -117.5t12.5 -135zM467 360q0 38 -5 82t-20 82t-43 63.5t-75 25.5 q-45 0 -73 -24t-43.5 -61t-21.5 -82t-6 -86q0 -37 5 -82.5t20 -85t43 -66.5t75 -27q45 0 73 25.5t43.5 64t21.5 84.5t6 87zM390 859q9 0 14 10t5 23q0 18 18 18h39q10 0 13 -5t3 -14q0 -51 -17 -82q-11 -17 -25 -25t-35 -8q-27 0 -45 8t-40 24l-30 22q-14 11 -20.5 14.5 t-13.5 3.5q-18 0 -18 -34q0 -16 -15 -16h-40q-7 0 -12.5 3.5t-5.5 14.5q0 21 4 40.5t13 35.5q10 17 25.5 27.5t40.5 10.5q24 0 38 -6t28 -17l41 -31q8 -6 17 -11.5t18 -5.5z" />
<glyph unicode="&#xd6;" horiz-adv-x="646" d="M599 362q0 -62 -13 -128t-44.5 -120.5t-84.5 -89.5t-134 -35q-84 0 -137.5 31.5t-84.5 83.5t-42.5 118.5t-11.5 136.5q0 61 12.5 126.5t43.5 119.5t84.5 89t136.5 35q81 0 134 -31.5t84.5 -83t44 -117.5t12.5 -135zM467 360q0 38 -5 82t-20 82t-43 63.5t-75 25.5 q-45 0 -73 -24t-43.5 -61t-21.5 -82t-6 -86q0 -37 5 -82.5t20 -85t43 -66.5t75 -27q45 0 73 25.5t43.5 64t21.5 84.5t6 87zM495 843q0 -28 -19 -45t-48 -17q-26 0 -45.5 16t-19.5 46q0 32 18.5 49t47.5 17q26 0 46 -17t20 -49zM286 843q0 -28 -19 -45t-48 -17 q-26 0 -45.5 16t-19.5 46q0 32 18.5 49t47.5 17q26 0 46 -17t20 -49z" />
<glyph unicode="&#xd7;" horiz-adv-x="531" d="M396 167q-8 -8 -17 -8t-17 8l-100 95l-94 -95q-3 -3 -7 -5.5t-10 -2.5q-9 0 -17 8l-30 30q-9 9 -9 17q0 5 3 9.5t6 7.5l94 93l-96 94q-9 7 -9 17q0 8 9 17l35 35q9 9 17 9q5 0 9.5 -3t7.5 -6l96 -95l94 94q4 4 8.5 7t9.5 3q10 0 17 -9l30 -31q4 -4 6 -7.5t2 -9.5 q0 -7 -9 -16l-94 -93l99 -93q9 -9 9 -17q0 -9 -9 -18z" />
<glyph unicode="&#xd8;" horiz-adv-x="646" d="M599 362q0 -62 -13 -128t-44.5 -120.5t-84.5 -89.5t-134 -35q-55 0 -97 13l-30 -69q-5 -12 -12.5 -16t-21.5 -4h-48q-8 0 -14 2.5t-6 9.5q0 5 2.5 10.5t4.5 10.5l44 103q-26 24 -44 55q-31 52 -42.5 118.5t-11.5 136.5q0 61 12.5 126.5t43.5 119.5t84.5 89t136.5 35 q61 0 106 -18l29 66q8 17 29 17h54q15 0 15 -12q0 -5 -2 -10l-4 -12l-44 -101q20 -20 35 -45q32 -51 44.5 -117t12.5 -135zM324 613q-45 0 -73 -24t-43.5 -61t-21.5 -82t-6 -86q0 -37 5 -82.5t20 -85.5q0 -1 1 -2l176 409q-24 14 -58 14zM467 360q0 38 -5 82q-5 38 -17 72 l-173 -405q21 -10 51 -10q45 0 73 25.5t43.5 64t21.5 84.5t6 87z" />
<glyph unicode="&#xd9;" horiz-adv-x="630" d="M198 232q0 -35 9.5 -60t26 -40.5t39 -23t48.5 -7.5q57 0 85.5 32.5t28.5 86.5v486q0 15 16 15h93q16 0 16 -15v-477q0 -115 -59 -177.5t-186 -62.5q-115 0 -180 56t-65 175v486q0 15 16 15h96q16 0 16 -15v-474zM371 800q4 -10 4 -14q0 -12 -17 -12h-64q-17 0 -26 16 l-53 89q-2 4 -2.5 7t-0.5 5q0 8 5.5 10.5t10.5 2.5h79q12 0 20 -15z" />
<glyph unicode="&#xda;" horiz-adv-x="630" d="M198 232q0 -35 9.5 -60t26 -40.5t39 -23t48.5 -7.5q57 0 85.5 32.5t28.5 86.5v486q0 15 16 15h93q16 0 16 -15v-477q0 -115 -59 -177.5t-186 -62.5q-115 0 -180 56t-65 175v486q0 15 16 15h96q16 0 16 -15v-474zM323 889q7 15 20 15h79q5 0 10.5 -2.5t5.5 -10.5 q0 -2 -0.5 -5t-2.5 -7l-53 -89q-9 -16 -26 -16h-64q-17 0 -17 12q0 4 4 14z" />
<glyph unicode="&#xdb;" horiz-adv-x="630" d="M198 232q0 -35 9.5 -60t26 -40.5t39 -23t48.5 -7.5q57 0 85.5 32.5t28.5 86.5v486q0 15 16 15h93q16 0 16 -15v-477q0 -115 -59 -177.5t-186 -62.5q-115 0 -180 56t-65 175v486q0 15 16 15h96q16 0 16 -15v-474zM463 798q3 -4 6 -7.5t3 -7.5q0 -9 -15 -9h-73q-8 0 -13 4 t-10 9l-41 59l-41 -59q-5 -6 -9 -9.5t-12 -3.5h-77q-13 0 -13 9q0 6 7 15l76 93q5 5 10.5 9t13.5 4h91q8 0 12 -4l9 -9z" />
<glyph unicode="&#xdc;" horiz-adv-x="630" d="M198 232q0 -35 9.5 -60t26 -40.5t39 -23t48.5 -7.5q57 0 85.5 32.5t28.5 86.5v486q0 15 16 15h93q16 0 16 -15v-477q0 -115 -59 -177.5t-186 -62.5q-115 0 -180 56t-65 175v486q0 15 16 15h96q16 0 16 -15v-474zM497 843q0 -28 -19 -45t-48 -17q-26 0 -45.5 16t-19.5 46 q0 32 18.5 49t47.5 17q26 0 46 -17t20 -49zM288 843q0 -28 -19 -45t-48 -17q-26 0 -45.5 16t-19.5 46q0 32 18.5 49t47.5 17q26 0 46 -17t20 -49z" />
<glyph unicode="&#xdd;" horiz-adv-x="536" d="M327 295v-280q0 -15 -16 -15h-96q-16 0 -16 15v277l-193 399q-6 12 -6 17q0 13 17 13h98q18 0 26 -17l125 -282l133 282q8 17 26 17h94q17 0 17 -13q0 -5 -6 -17zM285 889q7 15 20 15h79q5 0 10.5 -2.5t5.5 -10.5q0 -2 -0.5 -5t-2.5 -7l-53 -89q-9 -16 -26 -16h-64 q-17 0 -17 12q0 4 4 14z" />
<glyph unicode="&#xde;" d="M208 637h73q52 0 98.5 -14.5t80.5 -44t54 -73t20 -100.5q0 -59 -17 -104t-53 -80q-33 -32 -83 -49t-113 -17h-60v-140q0 -15 -16 -15h-96q-16 0 -16 15v691q0 15 16 15h96q16 0 16 -15v-69zM405 403q0 63 -38 93.5t-104 30.5h-55v-264h53q69 0 106.5 33.5t37.5 106.5z " />
<glyph unicode="&#xdf;" horiz-adv-x="569" d="M259 418q13 0 24.5 1t25.5 5q32 9 45 35.5t13 64.5q0 54 -23 83t-68 29q-47 0 -70 -29.5t-23 -101.5v-490q0 -15 -15 -15h-91q-15 0 -15 15v492q0 111 55 166.5t158 55.5q61 0 101 -17t64 -44t34 -60.5t10 -66.5q0 -51 -20 -90t-62 -65q60 -16 96 -60t36 -122 q0 -103 -51.5 -159t-144.5 -56q-46 0 -77 6q-20 4 -20 25v59q0 12 13 12q5 0 9.5 -1t10.5 -3q8 -2 19.5 -4t32.5 -2q43 0 64.5 28t21.5 90q0 60 -27 90.5t-66 36.5q-18 3 -29 4t-31 1q-14 0 -14 15v57q0 6 3.5 10.5t10.5 4.5z" />
<glyph unicode="&#xe0;" horiz-adv-x="474" d="M87 490q32 10 71.5 15.5t80.5 5.5q51 0 83.5 -12t52.5 -34q41 -47 41 -130v-320q0 -15 -15 -15h-83q-15 0 -15 15v23q-14 -13 -45.5 -29t-81.5 -16q-66 0 -106 40t-40 118q0 45 17 77t45 52t64.5 29t76.5 9h66v26q0 32 -20.5 49.5t-66.5 17.5q-20 0 -46.5 -4.5 t-45.5 -9.5q-7 -2 -11.5 -3t-8.5 -1q-10 0 -14 14l-12 47q-2 5 -3 10.5t-1 10.5q0 10 17 15zM299 238h-62q-38 0 -60 -21t-22 -59q0 -29 14.5 -51.5t54.5 -22.5q20 0 39.5 5.5t35.5 15.5v133zM294 592q4 -10 4 -14q0 -12 -17 -12h-70q-9 0 -12.5 4t-7.5 12l-60 130 q-3 7 -3 12q0 8 5.5 10.5t10.5 2.5h78q13 0 19 -15z" />
<glyph unicode="&#xe1;" horiz-adv-x="474" d="M87 490q32 10 71.5 15.5t80.5 5.5q51 0 83.5 -12t52.5 -34q41 -47 41 -130v-320q0 -15 -15 -15h-83q-15 0 -15 15v23q-14 -13 -45.5 -29t-81.5 -16q-66 0 -106 40t-40 118q0 45 17 77t45 52t64.5 29t76.5 9h66v26q0 32 -20.5 49.5t-66.5 17.5q-20 0 -46.5 -4.5 t-45.5 -9.5q-7 -2 -11.5 -3t-8.5 -1q-10 0 -14 14l-12 47q-2 5 -3 10.5t-1 10.5q0 10 17 15zM299 238h-62q-38 0 -60 -21t-22 -59q0 -29 14.5 -51.5t54.5 -22.5q20 0 39.5 5.5t35.5 15.5v133zM241 722q6 15 19 15h78q5 0 10.5 -2.5t5.5 -10.5q0 -5 -3 -12l-60 -130 q-4 -8 -7.5 -12t-12.5 -4h-70q-17 0 -17 12q0 4 4 14z" />
<glyph unicode="&#xe2;" horiz-adv-x="474" d="M87 490q32 10 71.5 15.5t80.5 5.5q51 0 83.5 -12t52.5 -34q41 -47 41 -130v-320q0 -15 -15 -15h-83q-15 0 -15 15v23q-14 -13 -45.5 -29t-81.5 -16q-66 0 -106 40t-40 118q0 45 17 77t45 52t64.5 29t76.5 9h66v26q0 32 -20.5 49.5t-66.5 17.5q-20 0 -46.5 -4.5 t-45.5 -9.5q-7 -2 -11.5 -3t-8.5 -1q-10 0 -14 14l-12 47q-2 5 -3 10.5t-1 10.5q0 10 17 15zM299 238h-62q-38 0 -60 -21t-22 -59q0 -29 14.5 -51.5t54.5 -22.5q20 0 39.5 5.5t35.5 15.5v133zM390 590q2 -2 4 -6.5t2 -8.5q0 -9 -15 -9h-68q-15 0 -23 13l-50 86l-49 -86 q-4 -6 -8 -9.5t-12 -3.5h-74q-14 0 -14 9q0 4 2 8.5t4 6.5l82 134q4 6 7.5 9.5t11.5 3.5h101q8 0 11 -3.5t7 -9.5z" />
<glyph unicode="&#xe3;" horiz-adv-x="474" d="M87 490q32 10 71.5 15.5t80.5 5.5q51 0 83.5 -12t52.5 -34q41 -47 41 -130v-320q0 -15 -15 -15h-83q-15 0 -15 15v23q-14 -13 -45.5 -29t-81.5 -16q-66 0 -106 40t-40 118q0 45 17 77t45 52t64.5 29t76.5 9h66v26q0 32 -20.5 49.5t-66.5 17.5q-20 0 -46.5 -4.5 t-45.5 -9.5q-7 -2 -11.5 -3t-8.5 -1q-10 0 -14 14l-12 47q-2 5 -3 10.5t-1 10.5q0 10 17 15zM299 238h-62q-38 0 -60 -21t-22 -59q0 -29 14.5 -51.5t54.5 -22.5q20 0 39.5 5.5t35.5 15.5v133zM310 655q9 0 14 10t5 23q0 18 18 18h39q10 0 13 -5t3 -14q0 -51 -17 -82 q-11 -17 -25 -25t-35 -8q-27 0 -45 8t-40 24l-30 22q-14 11 -20.5 14.5t-13.5 3.5q-18 0 -18 -34q0 -16 -15 -16h-40q-7 0 -12.5 3.5t-5.5 14.5q0 21 4 40.5t13 35.5q10 17 25.5 27.5t40.5 10.5q24 0 38 -6t28 -17l41 -31q8 -6 17 -11.5t18 -5.5z" />
<glyph unicode="&#xe4;" horiz-adv-x="474" d="M87 490q32 10 71.5 15.5t80.5 5.5q51 0 83.5 -12t52.5 -34q41 -47 41 -130v-320q0 -15 -15 -15h-83q-15 0 -15 15v23q-14 -13 -45.5 -29t-81.5 -16q-66 0 -106 40t-40 118q0 45 17 77t45 52t64.5 29t76.5 9h66v26q0 32 -20.5 49.5t-66.5 17.5q-20 0 -46.5 -4.5 t-45.5 -9.5q-7 -2 -11.5 -3t-8.5 -1q-10 0 -14 14l-12 47q-2 5 -3 10.5t-1 10.5q0 10 17 15zM299 238h-62q-38 0 -60 -21t-22 -59q0 -29 14.5 -51.5t54.5 -22.5q20 0 39.5 5.5t35.5 15.5v133zM411 639q0 -28 -19 -45t-48 -17q-26 0 -45.5 16t-19.5 46q0 32 18.5 49t47.5 17 q26 0 46 -17t20 -49zM202 639q0 -28 -19 -45t-48 -17q-26 0 -45.5 16t-19.5 46q0 32 18.5 49t47.5 17q26 0 46 -17t20 -49z" />
<glyph unicode="&#xe5;" horiz-adv-x="474" d="M87 490q32 10 71.5 15.5t80.5 5.5q51 0 83.5 -12t52.5 -34q41 -47 41 -130v-320q0 -15 -15 -15h-83q-15 0 -15 15v23q-14 -13 -45.5 -29t-81.5 -16q-66 0 -106 40t-40 118q0 45 17 77t45 52t64.5 29t76.5 9h66v26q0 32 -20.5 49.5t-66.5 17.5q-20 0 -46.5 -4.5 t-45.5 -9.5q-7 -2 -11.5 -3t-8.5 -1q-10 0 -14 14l-12 47q-2 5 -3 10.5t-1 10.5q0 10 17 15zM299 238h-62q-38 0 -60 -21t-22 -59q0 -29 14.5 -51.5t54.5 -22.5q20 0 39.5 5.5t35.5 15.5v133zM353 676q0 -22 -8 -42t-22.5 -35t-35.5 -24t-46 -9q-51 0 -82 31.5t-31 78.5 q0 22 8 43t22.5 36.5t35.5 25t47 9.5q25 0 45.5 -9t35.5 -24.5t23 -36.5t8 -44zM287 676q0 20 -11.5 35t-34.5 15q-21 0 -34 -14t-13 -36q0 -20 12.5 -33.5t34.5 -13.5q20 0 33 13.5t13 33.5z" />
<glyph unicode="&#xe6;" horiz-adv-x="745" d="M682 12q-23 -8 -61.5 -15.5t-74.5 -7.5q-60 0 -103.5 15t-72.5 42q-48 -32 -90 -44.5t-92 -12.5q-79 0 -118.5 41.5t-39.5 114.5q0 44 16 74t43 48t63 26t76 8h71v43q0 32 -20.5 49.5t-66.5 17.5q-20 0 -46.5 -4.5t-45.5 -9.5q-7 -2 -11.5 -3t-8.5 -1q-10 0 -14 14 l-12 47q-2 5 -3 10.5t-1 10.5q0 10 17 15q32 10 71.5 15.5t80.5 5.5q51 0 82.5 -13.5t54.5 -42.5q56 56 146 56q52 0 88.5 -19t59.5 -51.5t33 -75t10 -89.5v-20q0 -10 -1 -17q-1 -10 -5.5 -16t-17.5 -6h-266q2 -24 10.5 -46.5t25 -40.5t41.5 -29t60 -11q26 0 46.5 3.5 t52.5 14.5q9 3 14 5t10 2q13 0 13 -12v-68q0 -11 -3.5 -16t-10.5 -7zM224 85q34 0 58 9.5t40 19.5q-10 23 -15.5 49t-7.5 54h-62q-38 0 -60 -16t-22 -51q0 -27 15.5 -46t53.5 -19zM595 301q0 62 -20.5 87t-61.5 25q-37 0 -63.5 -25.5t-28.5 -86.5h174z" />
<glyph unicode="&#xe7;" horiz-adv-x="413" d="M351 -116q0 -15 -5.5 -29.5t-17.5 -26t-31.5 -19t-46.5 -7.5q-24 0 -41 3.5t-26 6.5q-14 5 -14 16q0 2 1 8t2 8l5 22q2 8 4 10.5t8 2.5q7 0 18 -5.5t31 -5.5q13 0 19 7.5t6 15.5q0 12 -8.5 19t-23.5 12q-12 3 -12 16q0 2 1 7.5t2 9.5l6 36q-54 6 -91 29t-60 60 q-23 35 -32.5 79t-9.5 92q0 51 14 98t42.5 83t72.5 57.5t105 21.5q38 0 66.5 -6t48.5 -13q16 -5 16 -16q0 -4 -1 -10l-2 -10l-11 -52q-3 -14 -13 -14q-5 0 -10.5 1.5t-11.5 3.5q-14 5 -34.5 8.5t-38.5 3.5q-54 0 -86.5 -39.5t-32.5 -114.5q0 -36 6.5 -66t21.5 -51.5 t38.5 -34t58.5 -12.5q23 0 38.5 3.5t35.5 8.5q8 2 12 3.5t9 1.5q13 0 13 -12v-65q0 -11 -3.5 -15.5t-10.5 -7.5q-16 -5 -37.5 -9t-43.5 -6l-6 -33q29 -12 44.5 -30t15.5 -44z" />
<glyph unicode="&#xe8;" horiz-adv-x="482" d="M419 12q-23 -8 -61.5 -15.5t-74.5 -7.5q-83 0 -134.5 28t-78.5 76q-18 32 -26.5 73t-8.5 86q0 116 60 188q30 35 69.5 53t94.5 18q52 0 88.5 -19t59.5 -51.5t33 -75t10 -89.5v-25q0 -16 -1 -23q-1 -10 -5.5 -16t-17.5 -6h-266q2 -24 10.5 -45t25 -36.5t41.5 -25t60 -9.5 q26 0 46.5 3.5t52.5 14.5q9 3 14 5t10 2q13 0 13 -12v-68q0 -11 -3.5 -16t-10.5 -7zM332 294q0 62 -20.5 90.5t-61.5 28.5q-37 0 -63.5 -29t-28.5 -90h174zM314 592q4 -10 4 -14q0 -12 -17 -12h-70q-9 0 -12.5 4t-7.5 12l-60 130q-3 7 -3 12q0 8 5.5 10.5t10.5 2.5h78 q13 0 19 -15z" />
<glyph unicode="&#xe9;" horiz-adv-x="482" d="M419 12q-23 -8 -61.5 -15.5t-74.5 -7.5q-83 0 -134.5 28t-78.5 76q-18 32 -26.5 73t-8.5 86q0 116 60 188q30 35 69.5 53t94.5 18q52 0 88.5 -19t59.5 -51.5t33 -75t10 -89.5v-25q0 -16 -1 -23q-1 -10 -5.5 -16t-17.5 -6h-266q2 -24 10.5 -45t25 -36.5t41.5 -25t60 -9.5 q26 0 46.5 3.5t52.5 14.5q9 3 14 5t10 2q13 0 13 -12v-68q0 -11 -3.5 -16t-10.5 -7zM332 294q0 62 -20.5 90.5t-61.5 28.5q-37 0 -63.5 -29t-28.5 -90h174zM273 722q6 15 19 15h78q5 0 10.5 -2.5t5.5 -10.5q0 -5 -3 -12l-60 -130q-4 -8 -7.5 -12t-12.5 -4h-70q-17 0 -17 12 q0 4 4 14z" />
<glyph unicode="&#xea;" horiz-adv-x="482" d="M419 12q-23 -8 -61.5 -15.5t-74.5 -7.5q-83 0 -134.5 28t-78.5 76q-18 32 -26.5 73t-8.5 86q0 116 60 188q30 35 69.5 53t94.5 18q52 0 88.5 -19t59.5 -51.5t33 -75t10 -89.5v-25q0 -16 -1 -23q-1 -10 -5.5 -16t-17.5 -6h-266q2 -24 10.5 -45t25 -36.5t41.5 -25t60 -9.5 q26 0 46.5 3.5t52.5 14.5q9 3 14 5t10 2q13 0 13 -12v-68q0 -11 -3.5 -16t-10.5 -7zM332 294q0 62 -20.5 90.5t-61.5 28.5q-37 0 -63.5 -29t-28.5 -90h174zM404 590q2 -2 4 -6.5t2 -8.5q0 -9 -15 -9h-68q-15 0 -23 13l-50 86l-49 -86q-4 -6 -8 -9.5t-12 -3.5h-74 q-14 0 -14 9q0 4 2 8.5t4 6.5l82 134q4 6 7.5 9.5t11.5 3.5h101q8 0 11 -3.5t7 -9.5z" />
<glyph unicode="&#xeb;" horiz-adv-x="482" d="M419 12q-23 -8 -61.5 -15.5t-74.5 -7.5q-83 0 -134.5 28t-78.5 76q-18 32 -26.5 73t-8.5 86q0 116 60 188q30 35 69.5 53t94.5 18q52 0 88.5 -19t59.5 -51.5t33 -75t10 -89.5v-25q0 -16 -1 -23q-1 -10 -5.5 -16t-17.5 -6h-266q2 -24 10.5 -45t25 -36.5t41.5 -25t60 -9.5 q26 0 46.5 3.5t52.5 14.5q9 3 14 5t10 2q13 0 13 -12v-68q0 -11 -3.5 -16t-10.5 -7zM332 294q0 62 -20.5 90.5t-61.5 28.5q-37 0 -63.5 -29t-28.5 -90h174zM422 639q0 -28 -19 -45t-48 -17q-26 0 -45.5 16t-19.5 46q0 32 18.5 49t47.5 17q26 0 46 -17t20 -49zM213 639 q0 -28 -19 -45t-48 -17q-26 0 -45.5 16t-19.5 46q0 32 18.5 49t47.5 17q26 0 46 -17t20 -49z" />
<glyph unicode="&#xec;" horiz-adv-x="252" d="M187 15q0 -15 -15 -15h-91q-15 0 -15 15v469q0 15 15 15h91q15 0 15 -15v-469zM181 592q4 -10 4 -14q0 -12 -17 -12h-70q-9 0 -12.5 4t-7.5 12l-60 130q-3 7 -3 12q0 8 5.5 10.5t10.5 2.5h78q13 0 19 -15z" />
<glyph unicode="&#xed;" horiz-adv-x="252" d="M187 15q0 -15 -15 -15h-91q-15 0 -15 15v469q0 15 15 15h91q15 0 15 -15v-469zM136 722q6 15 19 15h78q5 0 10.5 -2.5t5.5 -10.5q0 -5 -3 -12l-60 -130q-4 -8 -7.5 -12t-12.5 -4h-70q-17 0 -17 12q0 4 4 14z" />
<glyph unicode="&#xee;" horiz-adv-x="252" d="M187 15q0 -15 -15 -15h-91q-15 0 -15 15v469q0 15 15 15h91q15 0 15 -15v-469zM275 590q2 -2 4 -6.5t2 -8.5q0 -9 -15 -9h-68q-15 0 -23 13l-50 86l-49 -86q-4 -6 -8 -9.5t-12 -3.5h-74q-14 0 -14 9q0 4 2 8.5t4 6.5l82 134q4 6 7.5 9.5t11.5 3.5h101q8 0 11 -3.5t7 -9.5 z" />
<glyph unicode="&#xef;" horiz-adv-x="252" d="M187 15q0 -15 -15 -15h-91q-15 0 -15 15v469q0 15 15 15h91q15 0 15 -15v-469zM296 639q0 -28 -19 -45t-48 -17q-26 0 -45.5 16t-19.5 46q0 32 18.5 49t47.5 17q26 0 46 -17t20 -49zM87 639q0 -28 -19 -45t-48 -17q-26 0 -45.5 16t-19.5 46q0 32 18.5 49t47.5 17 q26 0 46 -17t20 -49z" />
<glyph unicode="&#xf0;" horiz-adv-x="505" d="M457 704q6 3 9 3q7 0 7 -13v-60q0 -11 -14 -18l-78 -39q48 -72 67.5 -148t19.5 -146q0 -50 -9.5 -102t-34.5 -95t-69.5 -70t-113.5 -27q-46 0 -83.5 14t-64.5 41.5t-41.5 68t-14.5 94.5q0 48 14 87.5t39 68t60.5 44t78.5 15.5q38 0 67.5 -14t51.5 -38q-8 47 -25.5 90.5 t-38.5 69.5l-127 -62q-6 -3 -10 -3q-7 0 -7 14v55q0 9 4 13t10 7l72 36q-29 20 -64 31t-76 16q-11 2 -14.5 5.5t-3.5 10.5v60q0 16 15 16q63 0 127 -25t112 -67zM244 84q32 0 52.5 15t32 39.5t16 55t4.5 61.5v20q0 12 -1 19q-18 15 -44.5 25t-52.5 10q-42 0 -70 -30t-28 -93 q0 -51 21.5 -86.5t69.5 -35.5z" />
<glyph unicode="&#xf1;" horiz-adv-x="521" d="M179 453q25 25 60.5 41.5t77.5 16.5q30 0 55.5 -8.5t47.5 -30.5q22 -23 30.5 -51t8.5 -65v-341q0 -15 -15 -15h-91q-15 0 -15 15v311q0 21 -3 33.5t-12 23.5q-14 17 -51 17q-23 0 -47 -9.5t-42 -23.5v-352q0 -15 -15 -15h-91q-15 0 -15 15v469q0 15 15 15h87q15 0 15 -15 v-31zM329 655q9 0 14 10t5 23q0 18 18 18h39q10 0 13 -5t3 -14q0 -51 -17 -82q-11 -17 -25 -25t-35 -8q-27 0 -45 8t-40 24l-30 22q-14 11 -20.5 14.5t-13.5 3.5q-18 0 -18 -34q0 -16 -15 -16h-40q-7 0 -12.5 3.5t-5.5 14.5q0 21 4 40.5t13 35.5q10 17 25.5 27.5t40.5 10.5 q24 0 38 -6t28 -17l41 -31q8 -6 17 -11.5t18 -5.5z" />
<glyph unicode="&#xf2;" horiz-adv-x="512" d="M477 251q0 -51 -11.5 -98.5t-37.5 -83.5t-68.5 -58t-104.5 -22q-61 0 -103 21t-68 57t-37.5 83.5t-11.5 100.5q0 48 12 95t39 83.5t70.5 59t105.5 22.5q59 0 100 -20.5t66.5 -55.5t37 -82.5t11.5 -101.5zM351 251q0 28 -3 56t-13 50t-28.5 36t-49.5 14q-27 0 -46 -14 t-30 -36t-16 -50t-5 -56q0 -27 4 -55t15 -51.5t30 -38.5t48 -15t47 13.5t28.5 36t14.5 51t4 59.5zM315 592q4 -10 4 -14q0 -12 -17 -12h-70q-9 0 -12.5 4t-7.5 12l-60 130q-3 7 -3 12q0 8 5.5 10.5t10.5 2.5h78q13 0 19 -15z" />
<glyph unicode="&#xf3;" horiz-adv-x="512" d="M477 251q0 -51 -11.5 -98.5t-37.5 -83.5t-68.5 -58t-104.5 -22q-61 0 -103 21t-68 57t-37.5 83.5t-11.5 100.5q0 48 12 95t39 83.5t70.5 59t105.5 22.5q59 0 100 -20.5t66.5 -55.5t37 -82.5t11.5 -101.5zM351 251q0 28 -3 56t-13 50t-28.5 36t-49.5 14q-27 0 -46 -14 t-30 -36t-16 -50t-5 -56q0 -27 4 -55t15 -51.5t30 -38.5t48 -15t47 13.5t28.5 36t14.5 51t4 59.5zM275 722q6 15 19 15h78q5 0 10.5 -2.5t5.5 -10.5q0 -5 -3 -12l-60 -130q-4 -8 -7.5 -12t-12.5 -4h-70q-17 0 -17 12q0 4 4 14z" />
<glyph unicode="&#xf4;" horiz-adv-x="512" d="M477 251q0 -51 -11.5 -98.5t-37.5 -83.5t-68.5 -58t-104.5 -22q-61 0 -103 21t-68 57t-37.5 83.5t-11.5 100.5q0 48 12 95t39 83.5t70.5 59t105.5 22.5q59 0 100 -20.5t66.5 -55.5t37 -82.5t11.5 -101.5zM351 251q0 28 -3 56t-13 50t-28.5 36t-49.5 14q-27 0 -46 -14 t-30 -36t-16 -50t-5 -56q0 -27 4 -55t15 -51.5t30 -38.5t48 -15t47 13.5t28.5 36t14.5 51t4 59.5zM410 590q2 -2 4 -6.5t2 -8.5q0 -9 -15 -9h-68q-15 0 -23 13l-50 86l-49 -86q-4 -6 -8 -9.5t-12 -3.5h-74q-14 0 -14 9q0 4 2 8.5t4 6.5l82 134q4 6 7.5 9.5t11.5 3.5h101 q8 0 11 -3.5t7 -9.5z" />
<glyph unicode="&#xf5;" horiz-adv-x="512" d="M477 251q0 -51 -11.5 -98.5t-37.5 -83.5t-68.5 -58t-104.5 -22q-61 0 -103 21t-68 57t-37.5 83.5t-11.5 100.5q0 48 12 95t39 83.5t70.5 59t105.5 22.5q59 0 100 -20.5t66.5 -55.5t37 -82.5t11.5 -101.5zM351 251q0 28 -3 56t-13 50t-28.5 36t-49.5 14q-27 0 -46 -14 t-30 -36t-16 -50t-5 -56q0 -27 4 -55t15 -51.5t30 -38.5t48 -15t47 13.5t28.5 36t14.5 51t4 59.5zM324 655q9 0 14 10t5 23q0 18 18 18h39q10 0 13 -5t3 -14q0 -51 -17 -82q-11 -17 -25 -25t-35 -8q-27 0 -45 8t-40 24l-30 22q-14 11 -20.5 14.5t-13.5 3.5q-18 0 -18 -34 q0 -16 -15 -16h-40q-7 0 -12.5 3.5t-5.5 14.5q0 21 4 40.5t13 35.5q10 17 25.5 27.5t40.5 10.5q24 0 38 -6t28 -17l41 -31q8 -6 17 -11.5t18 -5.5z" />
<glyph unicode="&#xf6;" horiz-adv-x="512" d="M477 251q0 -51 -11.5 -98.5t-37.5 -83.5t-68.5 -58t-104.5 -22q-61 0 -103 21t-68 57t-37.5 83.5t-11.5 100.5q0 48 12 95t39 83.5t70.5 59t105.5 22.5q59 0 100 -20.5t66.5 -55.5t37 -82.5t11.5 -101.5zM351 251q0 28 -3 56t-13 50t-28.5 36t-49.5 14q-27 0 -46 -14 t-30 -36t-16 -50t-5 -56q0 -27 4 -55t15 -51.5t30 -38.5t48 -15t47 13.5t28.5 36t14.5 51t4 59.5zM430 639q0 -28 -19 -45t-48 -17q-26 0 -45.5 16t-19.5 46q0 32 18.5 49t47.5 17q26 0 46 -17t20 -49zM221 639q0 -28 -19 -45t-48 -17q-26 0 -45.5 16t-19.5 46q0 32 18.5 49 t47.5 17q26 0 46 -17t20 -49z" />
<glyph unicode="&#xf7;" d="M331 176q0 -26 -18.5 -43.5t-44.5 -17.5q-25 0 -43 16.5t-18 44.5t17.5 45.5t43.5 17.5t44.5 -17t18.5 -46zM331 484q0 -26 -18.5 -43.5t-44.5 -17.5q-25 0 -43 16.5t-18 44.5t17.5 45.5t43.5 17.5t44.5 -17t18.5 -46zM107 291q-15 0 -15 15v54q0 15 15 15h329 q16 0 16 -15v-54q0 -15 -15 -15h-330z" />
<glyph unicode="&#xf8;" horiz-adv-x="512" d="M477 251q0 -51 -11.5 -98.5t-37.5 -83.5t-68.5 -58t-104.5 -22q-41 0 -73 9l-33 -71q-5 -12 -11 -16t-20 -4h-40q-16 0 -16 12q0 5 2.5 10.5t4.5 10.5l44 95q-16 14 -29 32q-26 36 -37.5 83.5t-11.5 100.5q0 48 12 95t39 83.5t70.5 59t105.5 22.5q38 0 68 -9l32 69 q5 10 10 13.5t16 3.5h43q14 0 14 -12q0 -7 -7 -23l-40 -86q17 -14 30 -32q26 -35 37.5 -82.5t11.5 -101.5zM351 251q0 28 -3 56q-2 19 -8 35l-113 -246q13 -5 30 -5q29 0 47 13.5t28.5 36t14.5 51t4 59.5zM257 407q-27 0 -46 -14t-30 -36t-16 -50t-5 -56q0 -27 4 -55 q2 -18 8 -35l112 242q-12 4 -27 4z" />
<glyph unicode="&#xf9;" horiz-adv-x="521" d="M342 46q-25 -25 -60.5 -41.5t-77.5 -16.5q-30 0 -55.5 8.5t-47.5 30.5q-22 23 -30.5 51t-8.5 65v341q0 15 15 15h91q15 0 15 -15v-311q0 -21 3 -33.5t12 -23.5q14 -17 51 -17q23 0 47 9.5t42 23.5v352q0 15 15 15h91q15 0 15 -15v-469q0 -15 -15 -15h-87q-15 0 -15 15v31 zM315 592q4 -10 4 -14q0 -12 -17 -12h-70q-9 0 -12.5 4t-7.5 12l-60 130q-3 7 -3 12q0 8 5.5 10.5t10.5 2.5h78q13 0 19 -15z" />
<glyph unicode="&#xfa;" horiz-adv-x="521" d="M342 46q-25 -25 -60.5 -41.5t-77.5 -16.5q-30 0 -55.5 8.5t-47.5 30.5q-22 23 -30.5 51t-8.5 65v341q0 15 15 15h91q15 0 15 -15v-311q0 -21 3 -33.5t12 -23.5q14 -17 51 -17q23 0 47 9.5t42 23.5v352q0 15 15 15h91q15 0 15 -15v-469q0 -15 -15 -15h-87q-15 0 -15 15v31 zM282 722q6 15 19 15h78q5 0 10.5 -2.5t5.5 -10.5q0 -5 -3 -12l-60 -130q-4 -8 -7.5 -12t-12.5 -4h-70q-17 0 -17 12q0 4 4 14z" />
<glyph unicode="&#xfb;" horiz-adv-x="521" d="M342 46q-25 -25 -60.5 -41.5t-77.5 -16.5q-30 0 -55.5 8.5t-47.5 30.5q-22 23 -30.5 51t-8.5 65v341q0 15 15 15h91q15 0 15 -15v-311q0 -21 3 -33.5t12 -23.5q14 -17 51 -17q23 0 47 9.5t42 23.5v352q0 15 15 15h91q15 0 15 -15v-469q0 -15 -15 -15h-87q-15 0 -15 15v31 zM409 590q2 -2 4 -6.5t2 -8.5q0 -9 -15 -9h-68q-15 0 -23 13l-50 86l-49 -86q-4 -6 -8 -9.5t-12 -3.5h-74q-14 0 -14 9q0 4 2 8.5t4 6.5l82 134q4 6 7.5 9.5t11.5 3.5h101q8 0 11 -3.5t7 -9.5z" />
<glyph unicode="&#xfc;" horiz-adv-x="521" d="M342 46q-25 -25 -60.5 -41.5t-77.5 -16.5q-30 0 -55.5 8.5t-47.5 30.5q-22 23 -30.5 51t-8.5 65v341q0 15 15 15h91q15 0 15 -15v-311q0 -21 3 -33.5t12 -23.5q14 -17 51 -17q23 0 47 9.5t42 23.5v352q0 15 15 15h91q15 0 15 -15v-469q0 -15 -15 -15h-87q-15 0 -15 15v31 zM430 639q0 -28 -19 -45t-48 -17q-26 0 -45.5 16t-19.5 46q0 32 18.5 49t47.5 17q26 0 46 -17t20 -49zM221 639q0 -28 -19 -45t-48 -17q-26 0 -45.5 16t-19.5 46q0 32 18.5 49t47.5 17q26 0 46 -17t20 -49z" />
<glyph unicode="&#xfd;" horiz-adv-x="481" d="M25 -85q12 0 23 -4.5t37 -4.5q37 0 53.5 15.5t26.5 39.5l23 58l-165 457q-2 6 -2 10q0 13 17 13h91q10 0 16 -3t10 -14l98 -314l95 313q3 11 9.5 14.5t16.5 3.5h85q17 0 17 -13q0 -4 -2 -10l-170 -480q-16 -44 -34 -80t-42 -61t-55.5 -38.5t-73.5 -13.5q-19 0 -42.5 1.5 t-43.5 6.5q-11 2 -14.5 6t-3.5 9t1 10l2 10l12 54q2 9 6 12t9 3zM278 722q6 15 19 15h78q5 0 10.5 -2.5t5.5 -10.5q0 -5 -3 -12l-60 -130q-4 -8 -7.5 -12t-12.5 -4h-70q-17 0 -17 12q0 4 4 14z" />
<glyph unicode="&#xfe;" horiz-adv-x="529" d="M179 455q22 24 58 40t75 16q52 0 87 -19.5t56 -53t30 -79.5t9 -98q0 -47 -9 -95.5t-31.5 -87.5t-60 -64t-94.5 -25q-49 0 -76.5 14.5t-44.5 28.5v-204q0 -15 -15 -15h-86q-15 0 -15 15v911q0 15 15 15h87q15 0 15 -15v-284zM367 254q0 28 -4 54.5t-14.5 47t-29.5 33 t-48 12.5q-24 0 -46.5 -7.5t-42.5 -21.5v-245q12 -11 35 -21.5t52 -10.5q28 0 47 12.5t30.5 34.5t16 50.5t4.5 61.5z" />
<glyph unicode="&#xff;" horiz-adv-x="481" d="M25 -85q12 0 23 -4.5t37 -4.5q37 0 53.5 15.5t26.5 39.5l23 58l-165 457q-2 6 -2 10q0 13 17 13h91q10 0 16 -3t10 -14l98 -314l95 313q3 11 9.5 14.5t16.5 3.5h85q17 0 17 -13q0 -4 -2 -10l-170 -480q-16 -44 -34 -80t-42 -61t-55.5 -38.5t-73.5 -13.5q-19 0 -42.5 1.5 t-43.5 6.5q-11 2 -14.5 6t-3.5 9t1 10l2 10l12 54q2 9 6 12t9 3zM426 639q0 -28 -19 -45t-48 -17q-26 0 -45.5 16t-19.5 46q0 32 18.5 49t47.5 17q26 0 46 -17t20 -49zM217 639q0 -28 -19 -45t-48 -17q-26 0 -45.5 16t-19.5 46q0 32 18.5 49t47.5 17q26 0 46 -17t20 -49z " />
<glyph unicode="&#x131;" horiz-adv-x="252" d="M187 15q0 -15 -15 -15h-91q-15 0 -15 15v469q0 15 15 15h91q15 0 15 -15v-469z" />
<glyph unicode="&#x152;" horiz-adv-x="900" d="M485 0q-16 0 -16 15v62q-12 -16 -28 -32t-37.5 -28.5t-48 -20t-58.5 -7.5q-74 0 -122 31.5t-76.5 83.5t-40 118.5t-11.5 136.5q0 61 13 126.5t43.5 119.5t81 89t126.5 35q60 0 99 -24t59 -59v60q0 15 16 15h365q15 0 15 -16v-77q0 -16 -15 -16h-253v-193h242q15 0 15 -16 v-74q0 -16 -15 -16h-242v-205h263q15 0 15 -16v-76q0 -16 -15 -16h-375zM467 360q0 38 -5 82t-20 82t-43 63.5t-75 25.5q-45 0 -73 -24t-43.5 -61t-21.5 -82t-6 -86t5 -86t20 -83.5t43 -63.5t75 -25q45 0 73 25t43.5 63t21.5 83.5t6 86.5z" />
<glyph unicode="&#x153;" horiz-adv-x="793" d="M730 12q-23 -8 -61.5 -15.5t-74.5 -7.5q-69 0 -114 21.5t-74 52.5q-23 -31 -61.5 -52.5t-100.5 -21.5q-58 0 -98 21t-64.5 57t-35.5 83.5t-11 100.5q0 48 12.5 95t39.5 83.5t69 59t101 22.5q58 0 95.5 -22.5t60.5 -52.5q29 35 66.5 55t90.5 20q52 0 88.5 -19t59.5 -51.5 t33 -75t10 -89.5v-25q0 -16 -1 -23q-1 -10 -5.5 -16t-17.5 -6h-266q2 -24 10.5 -45t25 -36.5t41.5 -25t60 -9.5q26 0 46.5 3.5t52.5 14.5q9 3 14 5t10 2q13 0 13 -12v-68q0 -11 -3.5 -16t-10.5 -7zM351 251q0 28 -3 56t-13 50t-28.5 36t-49.5 14q-27 0 -46 -14t-30 -36 t-16 -50t-5 -56q0 -27 4 -55t15 -51.5t30 -38.5t48 -15t47 13.5t28.5 36t14.5 51t4 59.5zM643 294q0 62 -20.5 90.5t-61.5 28.5q-37 0 -63.5 -29t-28.5 -90h174z" />
<glyph unicode="&#x178;" horiz-adv-x="536" d="M327 295v-280q0 -15 -16 -15h-96q-16 0 -16 15v277l-193 399q-6 12 -6 17q0 13 17 13h98q18 0 26 -17l125 -282l133 282q8 17 26 17h94q17 0 17 -13q0 -5 -6 -17zM446 843q0 -28 -19 -45t-48 -17q-26 0 -45.5 16t-19.5 46q0 32 18.5 49t47.5 17q26 0 46 -17t20 -49z M237 843q0 -28 -19 -45t-48 -17q-26 0 -45.5 16t-19.5 46q0 32 18.5 49t47.5 17q26 0 46 -17t20 -49z" />
<glyph unicode="&#x2c6;" horiz-adv-x="460" d="M379 590q2 -2 4 -6.5t2 -8.5q0 -9 -15 -9h-68q-15 0 -23 13l-50 86l-49 -86q-4 -6 -8 -9.5t-12 -3.5h-74q-14 0 -14 9q0 4 2 8.5t4 6.5l82 134q4 6 7.5 9.5t11.5 3.5h101q8 0 11 -3.5t7 -9.5z" />
<glyph unicode="&#x2da;" horiz-adv-x="460" d="M342 676q0 -22 -8 -42t-22.5 -35t-35.5 -24t-46 -9q-51 0 -82 31.5t-31 78.5q0 22 8 43t22.5 36.5t35.5 25t47 9.5q25 0 45.5 -9t35.5 -24.5t23 -36.5t8 -44zM276 676q0 20 -11.5 35t-34.5 15q-21 0 -34 -14t-13 -36q0 -20 12.5 -33.5t34.5 -13.5q20 0 33 13.5t13 33.5z " />
<glyph unicode="&#x2dc;" horiz-adv-x="460" d="M299 655q9 0 14 10t5 23q0 18 18 18h39q10 0 13 -5t3 -14q0 -51 -17 -82q-11 -17 -25 -25t-35 -8q-27 0 -45 8t-40 24l-30 22q-14 11 -20.5 14.5t-13.5 3.5q-18 0 -18 -34q0 -16 -15 -16h-40q-7 0 -12.5 3.5t-5.5 14.5q0 21 4 40.5t13 35.5q10 17 25.5 27.5t40.5 10.5 q24 0 38 -6t28 -17l41 -31q8 -6 17 -11.5t18 -5.5z" />
<glyph unicode="&#x2000;" horiz-adv-x="490" />
<glyph unicode="&#x2001;" horiz-adv-x="981" />
<glyph unicode="&#x2002;" horiz-adv-x="490" />
<glyph unicode="&#x2003;" horiz-adv-x="981" />
<glyph unicode="&#x2004;" horiz-adv-x="327" />
<glyph unicode="&#x2005;" horiz-adv-x="245" />
<glyph unicode="&#x2006;" horiz-adv-x="163" />
<glyph unicode="&#x2007;" horiz-adv-x="163" />
<glyph unicode="&#x2008;" horiz-adv-x="122" />
<glyph unicode="&#x2009;" horiz-adv-x="196" />
<glyph unicode="&#x200a;" horiz-adv-x="54" />
<glyph unicode="&#x2010;" horiz-adv-x="439" d="M379 343q16 0 16 -15v-77q0 -15 -15 -15h-313q-15 0 -15 15v77q0 15 15 15h312z" />
<glyph unicode="&#x2011;" horiz-adv-x="439" d="M379 343q16 0 16 -15v-77q0 -15 -15 -15h-313q-15 0 -15 15v77q0 15 15 15h312z" />
<glyph unicode="&#x2013;" horiz-adv-x="500" d="M484 354q16 0 16 -15v-71q0 -15 -15 -15h-470q-15 0 -15 15v71q0 15 15 15h469z" />
<glyph unicode="&#x2014;" horiz-adv-x="1000" d="M984 354q16 0 16 -15v-71q0 -15 -15 -15h-970q-15 0 -15 15v71q0 15 15 15h969z" />
<glyph unicode="&#x2018;" horiz-adv-x="270" d="M207 706q-15 -23 -24.5 -41.5t-17.5 -41.5q19 -10 29.5 -27t10.5 -36q0 -31 -20.5 -51t-55.5 -20q-37 0 -55.5 21.5t-18.5 53.5q0 21 6 42.5t14.5 42t18.5 37.5l18 31q6 12 19 12h71q13 0 13 -8q0 -6 -8 -15z" />
<glyph unicode="&#x2019;" horiz-adv-x="262" d="M55 512q15 23 24.5 41.5t17.5 41.5q-19 10 -29.5 27t-10.5 36q0 31 20.5 51t55.5 20q37 0 55.5 -21.5t18.5 -53.5q0 -21 -6 -43t-14.5 -42t-18.5 -37l-18 -31q-6 -12 -19 -12h-71q-13 0 -13 8q0 6 8 15z" />
<glyph unicode="&#x201a;" horiz-adv-x="270" d="M63 -78q15 23 24.5 41.5t17.5 41.5q-19 10 -29.5 27t-10.5 36q0 31 20.5 51t55.5 20q37 0 55.5 -21.5t18.5 -53.5q0 -21 -6 -43t-14.5 -42t-18.5 -37l-18 -31q-6 -12 -19 -12h-71q-13 0 -13 8q0 6 8 15z" />
<glyph unicode="&#x201c;" horiz-adv-x="483" d="M207 706q-15 -23 -24.5 -41.5t-17.5 -41.5q19 -10 29.5 -27t10.5 -36q0 -31 -20.5 -51t-55.5 -20q-37 0 -55.5 21.5t-18.5 53.5q0 21 6 42.5t14.5 42t18.5 37.5l18 31q6 12 19 12h71q13 0 13 -8q0 -6 -8 -15zM420 706q-15 -23 -24.5 -41.5t-17.5 -41.5q19 -10 29.5 -27 t10.5 -36q0 -31 -20.5 -51t-55.5 -20q-37 0 -55.5 21.5t-18.5 53.5q0 21 6 42.5t14.5 42t18.5 37.5l18 31q6 12 19 12h71q13 0 13 -8q0 -6 -8 -15z" />
<glyph unicode="&#x201d;" horiz-adv-x="483" d="M276 512q15 23 24.5 41.5t17.5 41.5q-19 10 -29.5 27t-10.5 36q0 31 20.5 51t55.5 20q37 0 55.5 -21.5t18.5 -53.5q0 -21 -6 -43t-14.5 -42t-18.5 -37l-18 -31q-6 -12 -19 -12h-71q-13 0 -13 8q0 6 8 15zM63 512q15 23 24.5 41.5t17.5 41.5q-19 10 -29.5 27t-10.5 36 q0 31 20.5 51t55.5 20q37 0 55.5 -21.5t18.5 -53.5q0 -21 -6 -43t-14.5 -42t-18.5 -37l-18 -31q-6 -12 -19 -12h-71q-13 0 -13 8q0 6 8 15z" />
<glyph unicode="&#x201e;" horiz-adv-x="483" d="M63 -78q15 23 24.5 41.5t17.5 41.5q-19 10 -29.5 27t-10.5 36q0 31 20.5 51t55.5 20q37 0 55.5 -21.5t18.5 -53.5q0 -21 -6 -43t-14.5 -42t-18.5 -37l-18 -31q-6 -12 -19 -12h-71q-13 0 -13 8q0 6 8 15zM276 -78q15 23 24.5 41.5t17.5 41.5q-19 10 -29.5 27t-10.5 36 q0 31 20.5 51t55.5 20q37 0 55.5 -21.5t18.5 -53.5q0 -21 -6 -43t-14.5 -42t-18.5 -37l-18 -31q-6 -12 -19 -12h-71q-13 0 -13 8q0 6 8 15z" />
<glyph unicode="&#x2022;" horiz-adv-x="439" d="M379 326q0 -32 -11 -60.5t-31.5 -50.5t-50.5 -35t-67 -13q-36 0 -65.5 12.5t-50 34t-32 50.5t-11.5 62q0 32 11 61t31.5 50.5t50 34.5t66.5 13q35 0 64.5 -12t50.5 -33.5t33 -50.5t12 -63z" />
<glyph unicode="&#x2026;" horiz-adv-x="821" d="M212 69q0 -33 -21.5 -56.5t-61.5 -23.5q-36 0 -58.5 22t-22.5 57t22.5 57t58.5 22t59.5 -21.5t23.5 -56.5zM499 69q0 -33 -21.5 -56.5t-61.5 -23.5q-36 0 -58.5 22t-22.5 57t22.5 57t58.5 22t59.5 -21.5t23.5 -56.5zM784 69q0 -33 -21.5 -56.5t-61.5 -23.5 q-36 0 -58.5 22t-22.5 57t22.5 57t58.5 22t59.5 -21.5t23.5 -56.5z" />
<glyph unicode="&#x202f;" horiz-adv-x="196" />
<glyph unicode="&#x2039;" horiz-adv-x="313" d="M46 240q-6 6 -6 15v21q0 6 4 12l101 138q8 11 15.5 15t21.5 4h71q17 0 17 -14q0 -6 -9 -18l-105 -141l108 -147q9 -12 9 -18q0 -14 -17 -14h-74q-14 0 -21.5 4t-15.5 15z" />
<glyph unicode="&#x203a;" horiz-adv-x="313" d="M168 112q-8 -11 -15.5 -15t-21.5 -4h-74q-17 0 -17 14q0 6 9 18l108 147l-105 141q-9 12 -9 18q0 14 17 14h71q14 0 21.5 -4t15.5 -15l101 -138q4 -6 4 -12v-21q0 -9 -6 -15z" />
<glyph unicode="&#x2044;" horiz-adv-x="183" d="M-36 19q-7 -13 -15 -16t-22 -3h-58q-18 0 -18 12q0 5 2.5 9.5t4.5 8.5l359 672q7 13 15 16t22 3h56q17 0 17 -12q0 -5 -2 -9.5t-4 -8.5z" />
<glyph unicode="&#x205f;" horiz-adv-x="245" />
<glyph unicode="&#x2074;" horiz-adv-x="400" d="M207 608l-100 -142h100v142zM200 710q5 8 9.5 9.5t9.5 1.5h76q10 0 10 -9v-246h46q9 0 9 -9v-50q0 -9 -9 -9h-46v-102q0 -9 -10 -9h-78q-10 0 -10 9v102h-167q-9 0 -9 9v49q0 11 6 19z" />
<glyph unicode="&#x20ac;" d="M500 7q-23 -8 -55.5 -13t-67.5 -5q-63 0 -110 19t-79.5 51.5t-51.5 76t-26 91.5h-71q-15 0 -15 16v53q0 6 4 11t11 5h65v92h-65q-15 0 -15 16v53q0 6 4 11t11 5h74q7 49 28.5 93t55.5 76.5t80 51.5t104 19q39 0 68 -4.5t54 -13.5q10 -4 13 -8t3 -9t-1 -10l-2 -11l-12 -57 q-3 -14 -13 -14q-5 0 -11 1.5t-17 5.5q-16 5 -32.5 7t-40.5 2q-69 0 -102 -32t-48 -97h201q6 -1 10 -6t4 -10v-53q0 -16 -16 -16h-208v-92h210q6 -1 10 -6t4 -10v-53q0 -16 -16 -16h-201q4 -24 14 -47t27 -41t43 -29.5t62 -11.5q32 0 54 3.5t39 9.5q18 7 26 7q14 0 14 -13 v-74q0 -12 -4 -16.5t-13 -7.5z" />
<glyph unicode="&#x2122;" horiz-adv-x="832" d="M145 360q-13 0 -13 12v271h-95q-12 0 -12 13v52q0 13 12 13h275q12 0 12 -13v-52q0 -13 -12 -13h-95v-271q0 -12 -13 -12h-59zM474 568v-200q0 -9 -9 -9h-63q-9 0 -9 9v344q0 9 9 9h71q9 0 12 -8l102 -224l106 224q2 8 12 8h68q9 0 9 -9v-344q0 -9 -9 -9h-61q-10 0 -10 9 v205l-79 -159q-4 -10 -18 -10h-39q-14 0 -19 11z" />
<glyph unicode="&#x2212;" d="M107 291q-15 0 -15 15v54q0 15 15 15h329q16 0 16 -15v-54q0 -15 -15 -15h-330z" />
<glyph horiz-adv-x="531" d="M332 859q9 0 14 10t5 23q0 18 18 18h39q10 0 13 -5t3 -14q0 -51 -17 -82q-11 -17 -25 -25t-35 -8q-27 0 -45 8t-40 24l-30 22q-14 11 -20.5 14.5t-13.5 3.5q-18 0 -18 -34q0 -16 -15 -16h-40q-7 0 -12.5 3.5t-5.5 14.5q0 21 4 40.5t13 35.5q10 17 25.5 27.5t40.5 10.5 q24 0 38 -6t28 -17l41 -31q8 -6 17 -11.5t18 -5.5z" />
<glyph horiz-adv-x="531" d="M377 867q0 -22 -8 -42t-22.5 -35t-35.5 -24t-46 -9q-51 0 -82 31.5t-31 78.5q0 22 8 43t22.5 36.5t35.5 25t47 9.5q25 0 45.5 -9t35.5 -24.5t23 -36.5t8 -44zM311 867q0 20 -11.5 35t-34.5 15q-21 0 -34 -14t-13 -36q0 -20 12.5 -33.5t34.5 -13.5q20 0 33 13.5t13 33.5z " />
<glyph horiz-adv-x="531" d="M437 843q0 -28 -19 -45t-48 -17q-26 0 -45.5 16t-19.5 46q0 32 18.5 49t47.5 17q26 0 46 -17t20 -49zM228 843q0 -28 -19 -45t-48 -17q-26 0 -45.5 16t-19.5 46q0 32 18.5 49t47.5 17q26 0 46 -17t20 -49z" />
<glyph horiz-adv-x="531" d="M408 798q3 -4 6 -7.5t3 -7.5q0 -9 -15 -9h-73q-8 0 -13 4t-10 9l-41 59l-41 -59q-5 -6 -9 -9.5t-12 -3.5h-77q-13 0 -13 9q0 6 7 15l76 93q5 5 10.5 9t13.5 4h91q8 0 12 -4l9 -9z" />
<glyph horiz-adv-x="531" d="M246 889q7 15 20 15h79q5 0 10.5 -2.5t5.5 -10.5q0 -2 -0.5 -5t-2.5 -7l-53 -89q-9 -16 -26 -16h-64q-17 0 -17 12q0 4 4 14z" />
<glyph horiz-adv-x="531" d="M331 800q4 -10 4 -14q0 -12 -17 -12h-64q-17 0 -26 16l-53 89q-2 4 -2.5 7t-0.5 5q0 8 5.5 10.5t10.5 2.5h79q12 0 20 -15z" />
</font>
</defs>
</svg>
