<?xml version="1.0" standalone="no"?>
<!DOCTYPE svg PUBLIC "-//W3C//DTD SVG 1.1//EN" "http://www.w3.org/Graphics/SVG/1.1/DTD/svg11.dtd" >
<svg xmlns="http://www.w3.org/2000/svg">
<metadata>
This is a custom SVG webfont generated by Font Squirrel.
Foundry     : DaltonMaag Ltd.
Foundry URL : http://www.daltonmaag.com/
</metadata>
<defs>
<font id="webfont1AXxDDc1" horiz-adv-x="544" >
<font-face units-per-em="1000" ascent="800" descent="-200" />
<missing-glyph horiz-adv-x="210" />
<glyph unicode=" "  horiz-adv-x="210" />
<glyph unicode="&#x09;" horiz-adv-x="210" />
<glyph unicode="&#xa0;" horiz-adv-x="210" />
<glyph unicode="!" horiz-adv-x="269" d="M89 706q0 15 16 15h56q16 0 16 -15l-8 -501q0 -15 -16 -15h-36q-16 0 -16 15zM70 53q0 29 18.5 47t45.5 18q26 0 45.5 -18t19.5 -47q0 -27 -19 -45.5t-46 -18.5q-26 0 -45 17.5t-19 46.5z" />
<glyph unicode="&#x22;" horiz-adv-x="404" d="M85 494q-15 0 -15 10q0 6 2 16l30 186q2 15 15 15h55q15 0 15 -11l-2 -14l-31 -188q-2 -14 -14 -14h-55zM247 494q-15 0 -15 10q0 6 2 16l30 186q2 15 15 15h55q15 0 15 -11l-2 -14l-31 -188q-2 -14 -14 -14h-55z" />
<glyph unicode="#" horiz-adv-x="638" d="M214 17q-15 0 -15 15v129h-97q-15 0 -15 15v44q0 6 4.5 10.5t10.5 4.5h97v139h-97q-15 0 -15 15v44q0 15 15 15h97v123q0 15 15 15h44q15 0 15 -15v-123h106v123q0 15 15 15h44q15 0 15 -15v-123h97q15 0 15 -15v-44q0 -15 -15 -15h-97v-139h97q6 0 10.5 -4.5t4.5 -10.5 v-44q0 -15 -15 -15h-97v-129q0 -15 -15 -15h-44q-15 0 -15 15v129h-106v-129q0 -15 -15 -15h-44zM273 235h106v139h-106v-139z" />
<glyph unicode="$" d="M59 91q0 14 14 14q7 0 24 -8q28 -12 60.5 -20.5t83.5 -8.5v271l-60 33q-30 17 -54 40.5t-39 54.5t-15 74q0 81 46.5 128.5t121.5 57.5v83q0 15 15 15h33q15 0 15 -15v-82q38 -2 69.5 -9.5t53.5 -15.5q12 -5 15.5 -9t3.5 -9t-1 -11l-2 -10l-6 -27q-3 -14 -13 -14 q-5 0 -12 3l-17 6q-14 5 -37 11.5t-54 8.5v-246q29 -16 57.5 -34t51.5 -42.5t37 -57t14 -75.5q0 -81 -42.5 -133.5t-117.5 -68.5v-90q0 -15 -15 -15h-33q-15 0 -15 15v84q-47 1 -88.5 8t-78.5 22q-7 3 -11 7.5t-4 16.5v48zM241 648q-34 -8 -57 -32t-23 -66q0 -43 22.5 -69 t57.5 -47v214zM304 79q31 12 50.5 38.5t19.5 70.5q0 40 -20 68.5t-50 48.5v-226z" />
<glyph unicode="%" horiz-adv-x="776" d="M578 -11q-70 0 -108.5 47t-38.5 125q0 32 9.5 62.5t28 54.5t46 38.5t63.5 14.5q35 0 62.5 -13t46.5 -36t29 -54t10 -67q0 -32 -9 -63t-27.5 -55t-46.5 -39t-65 -15zM197 387q-34 0 -61.5 13t-46.5 36t-29 54.5t-10 68.5q0 32 9.5 62.5t28 54.5t46 38.5t63.5 14.5 q35 0 62.5 -13.5t46.5 -37t29 -54.5t10 -65q0 -32 -9 -63t-27.5 -55t-46.5 -39t-65 -15zM526 702q7 13 15 16t22 3h26q17 0 17 -12q0 -5 -2 -9.5t-4 -8.5l-357 -672q-7 -13 -15 -16t-22 -3h-28q-18 0 -18 12q0 5 2.5 9.5t4.5 8.5zM579 52q20 0 33.5 9.5t21.5 25t11.5 35 t3.5 38.5q0 18 -3 37t-10.5 34.5t-21.5 25.5t-36 10q-20 0 -34 -9.5t-22.5 -24.5t-12.5 -34t-4 -39q0 -18 3.5 -37t11.5 -35t22.5 -26t36.5 -10zM198 450q20 0 33.5 9.5t21.5 25t11.5 35t3.5 38.5q0 18 -3 37t-10.5 34.5t-21.5 25.5t-36 10q-20 0 -34 -9.5t-22.5 -24.5 t-12.5 -34t-4 -39q0 -18 3.5 -37t11.5 -35t22.5 -26t36.5 -10z" />
<glyph unicode="&#x26;" horiz-adv-x="637" d="M452 96q-10 -13 -20.5 -25t-20.5 -21q-40 -35 -81 -46.5t-89 -11.5q-50 0 -87 15.5t-61.5 42t-37 62t-12.5 75.5q0 45 13 79.5t33 61t45 46.5t48 36q-15 31 -25 58.5t-10 67.5q0 34 10.5 66t33 57.5t57.5 41t83 15.5q36 0 62 -6t49 -14q12 -5 15.5 -9t3.5 -9t-1 -10 l-2 -11l-6 -28q-3 -14 -13 -14q-5 0 -10.5 2.5t-12.5 4.5q-18 6 -38.5 10.5t-43.5 4.5q-51 0 -76 -27t-25 -78q0 -35 16.5 -74t44 -79.5t63 -80.5t73.5 -76q17 38 23.5 82t9.5 105q0 15 15 15h45q15 0 15 -15q0 -78 -15.5 -140.5t-34.5 -97.5l123 -106q9 -8 9 -13 q0 -4 -1.5 -6t-3.5 -5l-29 -35q-5 -6 -12 -6q-8 0 -15 7zM394 147l-61 61q-27 27 -48 51t-37.5 45.5t-29.5 41.5q-13 -8 -29 -20.5t-30.5 -31.5t-24 -44t-9.5 -58q0 -60 33.5 -95t87.5 -35q30 0 52.5 7t40 18.5t30.5 27t25 32.5z" />
<glyph unicode="'" horiz-adv-x="242" d="M85 494q-15 0 -15 10q0 6 2 16l30 186q2 15 15 15h55q15 0 15 -11l-2 -14l-31 -188q-2 -14 -14 -14h-55z" />
<glyph unicode="(" horiz-adv-x="301" d="M185 -123q-15 0 -20 14q-39 100 -62 209t-23 221q0 107 20.5 218t58.5 211q5 14 20 14h55q15 0 15 -10q0 -4 -8 -27q-15 -41 -29 -89t-24.5 -100.5t-16.5 -107.5t-6 -109q0 -114 24.5 -217t57.5 -190q8 -23 8 -27q0 -10 -15 -10h-55z" />
<glyph unicode=")" horiz-adv-x="301" d="M61 -123q-15 0 -15 10q0 4 8 27q33 87 57.5 190t24.5 217q0 54 -6.5 109t-17 107.5t-24 100.5t-28.5 89q-8 23 -8 27q0 10 15 10h55q15 0 20 -14q38 -100 58.5 -211t20.5 -218q0 -112 -23 -221t-62 -209q-5 -14 -20 -14h-55z" />
<glyph unicode="*" horiz-adv-x="466" d="M89 387q-5 -3 -9 -3q-7 0 -12 8l-25 43q-3 4 -3 10q0 7 8 10l122 61l-121 60q-9 4 -9 12q0 4 3 9l25 43q5 9 12 9q4 0 10 -4l112 -77l-9 137q-1 7 3.5 11.5t11.5 4.5h50q16 0 15 -15l-8 -136l111 75q6 4 10 4q7 0 12 -9l25 -43q3 -5 3 -9q0 -8 -9 -12l-121 -61l122 -60 q8 -3 8 -10q0 -6 -3 -10l-25 -43q-5 -8 -12 -8q-5 0 -9 3l-112 73l8 -129q1 -15 -15 -15h-50q-7 0 -11.5 4.5t-3.5 11.5l8 131z" />
<glyph unicode="+" d="M229 295h-122q-15 0 -15 15v44q0 15 15 15h122v139q0 15 15 15h51q15 0 15 -15v-139h126q16 0 16 -15v-44q0 -15 -15 -15h-127v-138q0 -16 -15 -16h-51q-15 0 -15 15v139z" />
<glyph unicode="," horiz-adv-x="267" d="M85 -99q-14 0 -14 9q0 2 1 5t6 9l13 20q7 11 12.5 22t9.5 21t6 17q-27 7 -40.5 24.5t-13.5 40.5q0 29 19 47.5t48 18.5q33 0 51.5 -20t18.5 -51q0 -22 -6 -44.5t-14 -42t-17 -36t-15 -26.5q-4 -7 -8.5 -10.5t-12.5 -3.5h-44z" />
<glyph unicode="-" horiz-adv-x="463" d="M77 316q0 15 15 15h286q16 0 16 -15v-49q0 -15 -15 -15h-287q-15 0 -15 15v49z" />
<glyph unicode="." horiz-adv-x="269" d="M134 -11q-28 0 -48.5 18.5t-20.5 50.5q0 31 20 50.5t49 19.5q28 0 49 -19t21 -51q0 -29 -20.5 -49t-49.5 -20z" />
<glyph unicode="/" horiz-adv-x="365" d="M273 737q3 11 10.5 14t18.5 3h41q17 0 17 -12q0 -5 -1.5 -10.5t-3.5 -10.5l-252 -825q-5 -14 -11 -16.5t-20 -2.5h-39q-18 0 -18 12q0 5 1 9t3 9z" />
<glyph unicode="0" d="M36 360q0 42 4.5 85.5t14.5 84.5t27.5 77t44 63.5t62.5 43t83 15.5t83 -15.5t62.5 -43t44 -63.5t27.5 -77t14.5 -84.5t4.5 -85.5q0 -63 -10 -128.5t-36.5 -119.5t-72.5 -88.5t-117 -34.5t-117 34t-72.5 88t-36.5 120t-10 129zM420 360q0 49 -6 101t-22.5 94.5t-45.5 70 t-74 27.5t-74 -27.5t-45.5 -70t-22.5 -94.5t-6 -101t6 -101.5t22.5 -95.5t45.5 -70.5t74 -27.5t74 27.5t45.5 70t22.5 95t6 102.5z" />
<glyph unicode="1" d="M80 59q0 15 15 15h146v569l-132 -28q-10 -2 -14 -2q-9 0 -12 4.5t-3 11.5v38q0 14 17 18l134 30q22 6 45 6h34q16 0 16 -15v-632h140q15 0 15 -15v-44q0 -15 -15 -15h-371q-15 0 -15 15v44z" />
<glyph unicode="2" d="M47 53q0 17 10 27q59 54 111.5 107.5t90.5 102.5q55 69 77.5 124.5t22.5 106.5q0 38 -11 63t-29 40t-41.5 21t-49.5 6q-40 0 -72 -9.5t-52 -17.5q-7 -2 -12 -4.5t-10 -2.5q-12 0 -15 14l-5 24l-2 11q-1 5 -1 10q0 6 3.5 11t15.5 10q23 9 66.5 20.5t94.5 11.5 q48 0 86.5 -14t65.5 -39.5t41.5 -61t14.5 -79.5q0 -78 -28.5 -139t-73.5 -120q-41 -54 -92.5 -106.5t-99.5 -95.5h302q15 0 15 -15v-44q0 -15 -15 -15h-393q-15 0 -15 15v38z" />
<glyph unicode="3" d="M47 76q0 13 13 13q5 0 13.5 -3t16.5 -5q12 -4 39.5 -10.5t70.5 -6.5q36 0 66 7.5t51.5 24.5t34 43t12.5 64q0 67 -43.5 100.5t-118.5 33.5h-65q-15 0 -15 15v47q0 15 15 15h62q25 0 53 6.5t50.5 21.5t37.5 38.5t15 58.5q0 32 -10.5 54t-29 35.5t-44 19.5t-55.5 6 q-38 0 -66 -6t-39 -9q-7 -2 -13 -4t-11 -2q-9 0 -13 14l-5 22q-1 5 -2 9t-1 9q0 6 3.5 10.5t15.5 9.5q20 7 58 14.5t89 7.5q43 0 81 -10.5t66.5 -32.5t44.5 -56t16 -80q0 -37 -11 -65t-28.5 -49t-40 -35t-44.5 -23q65 -16 100 -59.5t35 -114.5q0 -107 -66.5 -161t-182.5 -54 q-48 0 -85 7.5t-56 14.5q-7 2 -10.5 7t-3.5 16v42z" />
<glyph unicode="4" d="M331 276v340l-213 -340h213zM36 260q0 11 3 18.5t7 12.5l263 412q8 13 16 15.5t16 2.5h55q16 0 16 -15v-430h80q15 0 15 -15v-43q0 -15 -15 -15h-80v-188q0 -15 -16 -15h-49q-16 0 -16 15v188h-280q-15 0 -15 15v42z" />
<glyph unicode="5" d="M65 72q0 13 13 13q5 0 14 -3t17 -5q15 -4 44.5 -8.5t62.5 -4.5q76 0 119 44.5t43 122.5q0 70 -42 108t-126 38q-28 0 -45.5 -1t-28 -2t-17 -2t-12.5 -1q-15 0 -15 16v319q0 15 15 15h307q15 0 15 -15v-48q0 -15 -15 -15h-244v-193q10 1 24.5 1.5t28.5 0.5q61 0 106.5 -16 t75.5 -45t45 -69.5t15 -88.5q0 -55 -17.5 -100t-50 -77t-79.5 -49.5t-106 -17.5q-37 0 -75.5 6t-57.5 12q-7 2 -10.5 7t-3.5 16v42z" />
<glyph unicode="6" d="M139 312q0 -54 7 -100t23.5 -80t43.5 -53t68 -19q27 0 52 8.5t43.5 29t30 54.5t11.5 84q0 158 -127 158q-25 0 -47.5 -7t-42 -17.5t-35.5 -23.5t-27 -25v-9zM450 656q-3 -14 -13 -14q-5 0 -9.5 1t-12.5 3q-9 2 -26.5 5t-45.5 3q-41 0 -75.5 -17.5t-60.5 -50t-42 -79.5 t-20 -107q13 15 32 27.5t41 21.5t45 14t45 5q97 0 146 -62t49 -164q0 -58 -16 -104.5t-45.5 -79.5t-71 -51t-92.5 -18q-61 0 -103 24.5t-68.5 68t-38.5 104t-12 131.5q0 94 18.5 170t55 130t90.5 83t125 29q33 0 56.5 -3.5t40.5 -9.5q16 -5 16 -16q0 -4 -1 -10l-2 -10z" />
<glyph unicode="7" d="M166 0q-5 0 -10 2.5t-5 10.5q0 6 2 20.5t4 25.5q8 50 27 120t49.5 149t71.5 160.5t92 154.5h-349q-15 0 -15 15v48q0 15 15 15h433q15 0 15 -15v-51q0 -11 -3.5 -17.5t-8.5 -11.5q-38 -44 -76 -111.5t-72 -148.5t-60.5 -171t-40.5 -180q-2 -15 -16 -15h-53z" />
<glyph unicode="8" d="M174 383q-20 10 -40 25.5t-35.5 36t-25 46.5t-9.5 57q0 44 17 77.5t46 56.5t68 35t83 12q40 0 77.5 -10t66.5 -31t46.5 -53t17.5 -77q0 -29 -9.5 -56t-26 -49.5t-37.5 -40t-43 -28.5q65 -24 100 -68t35 -110q0 -50 -16.5 -90t-47.5 -68t-74 -43.5t-95 -15.5 q-111 0 -173.5 53.5t-62.5 147.5q0 73 38 121.5t100 71.5zM281 409q14 2 34 13.5t39 29.5t32 42t13 53q0 49 -32 80.5t-95 31.5q-54 0 -88 -29.5t-34 -80.5q0 -32 13.5 -55t33.5 -40t43 -28t41 -17zM256 350q-26 -6 -49.5 -18.5t-42.5 -32t-30 -46t-11 -60.5q0 -60 41 -97 t108 -37q31 0 58 9.5t47 27.5t31 44.5t11 60.5q0 32 -12.5 57t-34.5 43.5t-52 30.5t-64 18z" />
<glyph unicode="9" d="M83 64q0 13 12 13q8 0 16 -2t19 -4.5t26 -4.5t38 -2q88 0 139 60.5t63 188.5q-26 -28 -66.5 -44t-84.5 -16q-48 0 -85 18t-62.5 49.5t-39 73t-13.5 88.5q0 51 14.5 95.5t43 78.5t70 53.5t96.5 19.5q63 0 105.5 -25.5t68 -67.5t36 -96t10.5 -111q0 -50 -4.5 -102 t-16.5 -101t-33 -92t-54 -75.5t-78.5 -51t-107.5 -18.5q-23 0 -46.5 2t-46.5 8q-13 4 -16 9.5t-3 14.5v41zM405 390q2 12 2 23v18q0 37 -5 77t-19.5 73.5t-41.5 55t-72 21.5q-35 0 -61 -13t-43.5 -36t-26 -55t-8.5 -71q0 -29 6.5 -57.5t22 -50.5t41 -35.5t63.5 -13.5 q47 0 83 20.5t59 43.5z" />
<glyph unicode=":" horiz-adv-x="269" d="M134 -11q-28 0 -48.5 18.5t-20.5 50.5q0 31 20 50.5t49 19.5q28 0 49 -19t21 -51q0 -29 -20.5 -49t-49.5 -20zM134 360q-28 0 -48.5 18.5t-20.5 50.5q0 31 20 50.5t49 19.5q28 0 49 -19t21 -51q0 -29 -20.5 -49t-49.5 -20z" />
<glyph unicode=";" horiz-adv-x="272" d="M85 -99q-14 0 -14 9q0 2 1 5t6 9l13 20q7 11 12.5 22t9.5 21t6 17q-27 7 -40.5 24.5t-13.5 40.5q0 29 19 47.5t48 18.5q33 0 51.5 -20t18.5 -51q0 -22 -6 -44.5t-14 -42t-17 -36t-15 -26.5q-4 -7 -8.5 -10.5t-12.5 -3.5h-44zM137 360q-28 0 -48.5 18.5t-20.5 50.5 q0 31 20 50.5t49 19.5q28 0 49 -19t21 -51q0 -29 -20.5 -49t-49.5 -20z" />
<glyph unicode="&#x3c;" d="M105 297q-6 4 -9.5 7t-3.5 11v48q0 8 3.5 11.5t9.5 7.5l323 190q2 2 6.5 4t8.5 2q9 0 9 -14v-57q0 -8 -3.5 -11t-9.5 -7l-252 -148l252 -147q13 -8 13 -22v-54q0 -14 -9 -14q-4 0 -8 1.5t-6 3.5z" />
<glyph unicode="=" d="M92 268q0 15 15 15h329q16 0 16 -15v-44q0 -15 -15 -15h-330q-15 0 -15 15v44zM92 436q0 15 15 15h329q16 0 16 -15v-44q0 -15 -15 -15h-330q-15 0 -15 15v44z" />
<glyph unicode="&#x3e;" d="M92 172q0 14 13 22l252 147l-252 148q-6 4 -9.5 7t-3.5 11v57q0 14 9 14q4 0 8.5 -2t6.5 -4l323 -190q6 -4 9.5 -7.5t3.5 -11.5v-48q0 -8 -3.5 -11t-9.5 -7l-324 -188q-2 -2 -6 -3.5t-8 -1.5q-9 0 -9 14v54z" />
<glyph unicode="?" horiz-adv-x="412" d="M105 295q0 6 1.5 12t7.5 11l45 36q26 21 50.5 43.5t43 47.5t30 51.5t11.5 56.5q0 55 -30.5 80t-83.5 25q-29 0 -54 -6t-53 -17q-7 -2 -13 -4.5t-11 -2.5q-10 0 -13 14l-3 17l-2 11q-1 5 -1 10q0 6 3.5 11t15.5 10q32 12 65.5 20t77.5 8q87 0 136 -44t49 -125 q0 -38 -11 -71.5t-30.5 -63.5t-46.5 -56.5t-58 -50.5l-50 -38v-75q0 -15 -16 -15h-44q-16 0 -16 15v90zM80 53q0 29 18.5 47t45.5 18q26 0 45.5 -18t19.5 -47q0 -27 -19 -45.5t-46 -18.5q-26 0 -45 17.5t-19 46.5z" />
<glyph unicode="@" horiz-adv-x="855" d="M551 -186q0 -12 -4 -16.5t-11 -7.5q-23 -5 -46.5 -7.5t-61.5 -2.5q-81 0 -150.5 25t-120 73t-79 118.5t-28.5 161.5q0 83 28.5 153.5t79.5 121.5t122.5 79.5t157.5 28.5q74 0 140.5 -20.5t117 -62t80 -104t29.5 -146.5q0 -44 -13.5 -85t-39.5 -73t-64.5 -51.5 t-87.5 -19.5q-16 0 -33 2.5t-33.5 8.5t-30.5 15.5t-23 23.5q-20 -19 -43.5 -29.5t-57.5 -10.5q-63 0 -93.5 37.5t-30.5 97.5q0 82 56 140q57 57 145 57q23 0 41.5 -1.5t42.5 -6.5q12 -2 13.5 -7.5t0.5 -12.5l-19 -186q-1 -6 -1 -11q0 -13 4 -22q5 -13 15 -20t23 -9.5 t27 -2.5q31 0 54.5 13t38.5 35.5t22.5 52.5t7.5 65q0 62 -21 110.5t-59.5 82.5t-92.5 51.5t-120 17.5t-121.5 -23t-95.5 -64t-62.5 -98.5t-22.5 -127.5q0 -66 21 -122t60 -97t94.5 -64t124.5 -23q31 0 47 1.5t34 4.5q8 2 15 3.5t12 1.5q12 0 12 -13v-35zM476 255q-7 2 -13 2 h-11q-54 0 -87 -35t-33 -92q0 -32 12.5 -54.5t45.5 -22.5q23 0 39.5 6t26.5 15z" />
<glyph unicode="A" horiz-adv-x="576" d="M241 704q5 17 30 17h36q25 0 30 -17l224 -681q2 -6 2 -10q0 -13 -17 -13h-50q-10 0 -16.5 3t-9.5 14l-59 186h-251l-59 -186q-3 -11 -9.5 -14t-16.5 -3h-45q-17 0 -17 13q0 4 2 10zM389 272l-102 325l-105 -325h207z" />
<glyph unicode="B" horiz-adv-x="574" d="M90 706q0 15 16 15h186q106 0 161 -49t55 -129q0 -57 -24.5 -100t-78.5 -69q55 -16 89.5 -60.5t34.5 -108.5q0 -46 -16 -83.5t-45.5 -64.5t-70 -42t-89.5 -15h-202q-16 0 -16 15v691zM287 74q31 0 59 6.5t49 22t33 40.5t12 61q0 31 -11 55t-29.5 40t-44 24.5t-53.5 8.5 h-127v-258h112zM294 406q57 0 91.5 32t34.5 92q0 58 -36 87.5t-93 29.5h-116v-241h119z" />
<glyph unicode="C" horiz-adv-x="499" d="M481 33q0 -12 -4 -16.5t-11 -7.5q-11 -5 -42.5 -12.5t-82.5 -7.5q-81 0 -135.5 31.5t-87.5 83.5t-47 118.5t-14 136.5q0 64 13.5 130t45.5 119.5t85 87t133 33.5q39 0 72.5 -6t59.5 -16q12 -5 15.5 -9t3.5 -9t-1 -11l-2 -10l-6 -29q-3 -14 -13 -14q-5 0 -10.5 2t-12.5 4 q-12 5 -40.5 11.5t-63.5 6.5q-57 0 -93.5 -27t-57 -69t-28.5 -93.5t-8 -100.5q0 -48 7.5 -99.5t29.5 -94t62 -70t104 -27.5q31 0 55.5 7t34.5 11q18 7 25 7q14 0 14 -12v-48z" />
<glyph unicode="D" horiz-adv-x="614" d="M276 77q55 0 93.5 22t62.5 60t34.5 90t10.5 111q0 60 -10.5 111.5t-34.5 90t-62.5 60.5t-93.5 22h-100v-567h100zM90 706q0 15 16 15h156q89 0 148 -29t94.5 -78t50 -115t14.5 -139q0 -74 -15 -139.5t-50 -114.5t-94.5 -77.5t-147.5 -28.5h-156q-16 0 -16 15v691z" />
<glyph unicode="E" horiz-adv-x="500" d="M106 0q-16 0 -16 15v691q0 15 16 15h335q15 0 15 -16v-46q0 -16 -15 -16h-265v-236h247q15 0 15 -16v-46q0 -16 -15 -16h-247v-251h275q15 0 15 -16v-46q0 -16 -15 -16h-345z" />
<glyph unicode="F" horiz-adv-x="486" d="M90 706q0 15 16 15h345q15 0 15 -16v-46q0 -16 -15 -16h-275v-235h249q15 0 15 -16v-46q0 -16 -15 -16h-249v-315q0 -15 -16 -15h-54q-16 0 -16 15v691z" />
<glyph unicode="G" horiz-adv-x="599" d="M453 314q0 15 16 15h54q16 0 16 -15v-265q0 -20 -17 -28q-47 -20 -88.5 -26t-86.5 -6q-78 0 -133.5 29.5t-90 79.5t-50.5 117.5t-16 143.5q0 66 15 132t48.5 119t87.5 86t132 33q52 0 88 -8.5t55 -16.5q12 -5 15.5 -9t3.5 -9t-1 -10l-2 -11l-6 -29q-3 -14 -13 -14 q-5 0 -10.5 2t-12.5 4q-20 7 -47.5 14t-68.5 7q-56 0 -92.5 -25.5t-59 -66.5t-31.5 -92t-9 -103q0 -140 50 -218t156 -78q43 0 67.5 6t30.5 9v233z" />
<glyph unicode="H" horiz-adv-x="638" d="M90 706q0 15 16 15h54q16 0 16 -15v-299h286v299q0 15 16 15h54q16 0 16 -15v-691q0 -15 -16 -15h-54q-16 0 -16 15v314h-286v-314q0 -15 -16 -15h-54q-16 0 -16 15v691z" />
<glyph unicode="I" horiz-adv-x="266" d="M106 0q-16 0 -16 15v691q0 15 16 15h54q16 0 16 -15v-691q0 -15 -16 -15h-54z" />
<glyph unicode="J" horiz-adv-x="385" d="M17 62q3 15 14 15q4 0 9.5 -1t13.5 -3t20 -3t35 -1q59 0 84.5 27t25.5 93v517q0 15 16 15h54q16 0 16 -15v-524q0 -39 -8 -74.5t-30 -61.5t-60.5 -41.5t-99.5 -15.5q-21 0 -40.5 2t-34.5 5t-19 7.5t-4 9.5t1 11t2 11z" />
<glyph unicode="K" horiz-adv-x="549" d="M90 706q0 15 16 15h54q16 0 16 -15v-302l250 298q8 11 15.5 15t21.5 4h51q17 0 17 -14q0 -6 -9 -18l-271 -313l292 -343q11 -12 11 -19q0 -14 -17 -14h-62q-14 0 -20.5 4.5t-14.5 14.5l-264 311v-315q0 -15 -16 -15h-54q-16 0 -16 15v691z" />
<glyph unicode="L" horiz-adv-x="492" d="M90 706q0 15 16 15h54q16 0 16 -15v-628h291q15 0 15 -16v-46q0 -16 -15 -16h-361q-16 0 -16 15v691z" />
<glyph unicode="M" horiz-adv-x="813" d="M90 706q0 15 16 15h75q15 0 20 -13l207 -537l217 537q5 13 20 13h62q16 0 16 -15v-691q0 -15 -16 -15h-52q-16 0 -16 15v539l-188 -464q-7 -17 -30 -17h-31q-23 0 -30 17l-184 466v-541q0 -15 -16 -15h-54q-16 0 -16 15v691z" />
<glyph unicode="N" horiz-adv-x="638" d="M90 706q0 15 16 15h52q13 0 20 -13l287 -541v539q0 15 16 15h51q16 0 16 -15v-691q0 -15 -16 -15h-51q-14 0 -20 13l-288 541v-539q0 -15 -16 -15h-51q-16 0 -16 15v691z" />
<glyph unicode="O" horiz-adv-x="644" d="M322 653q-59 0 -93.5 -30t-52 -74t-22.5 -95.5t-5 -94.5t5 -94.5t22.5 -95.5t52 -74t93.5 -30t93.5 30t52 74t22.5 95.5t5 94.5t-5 94.5t-22.5 95.5t-52 74t-93.5 30zM322 729q77 0 128 -31t81.5 -83t43 -118.5t12.5 -137.5t-12.5 -137.5t-43 -118.5t-81.5 -83t-128 -31 t-128 31t-81.5 83t-43 118.5t-12.5 137.5t12.5 137.5t43 118.5t81.5 83t128 31z" />
<glyph unicode="P" horiz-adv-x="536" d="M90 706q0 15 16 15h158q120 0 183.5 -61t63.5 -167q0 -54 -17.5 -96.5t-50.5 -72t-80 -45t-106 -15.5h-82v-249q0 -15 -16 -15h-53q-16 0 -16 15v691zM250 339q88 0 130.5 40t42.5 111q0 44 -13 74t-36 48t-55 26t-69 8h-75v-307h75z" />
<glyph unicode="Q" horiz-adv-x="644" d="M371 -7q-12 -2 -24 -3t-25 -1q-77 0 -128 31t-81.5 83t-43 118.5t-12.5 137.5t12.5 137.5t43 118.5t81.5 83t128 31t128 -31t81.5 -83t43 -118.5t12.5 -137.5q0 -54 -7 -105.5t-23.5 -96.5t-43 -81t-66.5 -58l44 -93q2 -6 2 -10q0 -13 -16 -13h-46q-19 0 -26 16zM291 167 q-2 6 -2 10q0 13 16 13h45q19 0 26 -16l37 -81q27 21 43.5 52.5t25 68.5t11 74.5t2.5 70.5q0 43 -5 94.5t-22.5 95.5t-52 74t-93.5 30t-93.5 -30t-52 -74t-22.5 -95.5t-5 -94.5t5 -94.5t22.5 -95.5t52 -74t93.5 -30q10 0 15 1z" />
<glyph unicode="R" horiz-adv-x="571" d="M260 368q43 0 73.5 11.5t49 31t27 45t8.5 53.5q0 64 -39.5 100.5t-117.5 36.5h-86v-278h85zM90 706q0 15 16 15h151q66 0 113 -16.5t77.5 -45t44.5 -66.5t14 -81q0 -79 -39 -129.5t-113 -74.5l177 -274q10 -14 10 -20q0 -14 -17 -14h-54q-14 0 -21 4t-14 15l-171 275h-89 v-279q0 -15 -16 -15h-53q-16 0 -16 15v691z" />
<glyph unicode="S" horiz-adv-x="478" d="M28 91q0 14 14 14q7 0 24 -8q28 -12 60.5 -20.5t83.5 -8.5q27 0 51 7t42.5 21.5t29 37t10.5 54.5q0 30 -11 52.5t-30 40t-43 32t-50 27.5q-30 15 -60 32.5t-54 40.5t-38.5 54t-14.5 74q0 45 15.5 80t42.5 59t64.5 36.5t81.5 12.5q48 0 86 -8t64 -18q12 -5 15.5 -9t3.5 -9 t-1 -11l-2 -10l-6 -27q-3 -14 -13 -14q-5 0 -11 3l-18 6q-16 6 -46 13.5t-71 7.5q-23 0 -44 -6t-37.5 -19t-26 -32t-9.5 -46q0 -26 10.5 -45.5t28 -35.5t40 -29.5t47.5 -26.5l62 -35q32 -18 57.5 -42.5t41.5 -58t16 -80.5t-15 -85.5t-43.5 -65.5t-69 -42t-91.5 -15 q-48 0 -90.5 7t-80.5 23q-7 3 -11 7.5t-4 16.5v48z" />
<glyph unicode="T" horiz-adv-x="455" d="M185 643h-160q-15 0 -15 16v46q0 16 15 16h405q15 0 15 -16v-46q0 -16 -15 -16h-159v-628q0 -15 -16 -15h-54q-16 0 -16 15v628z" />
<glyph unicode="U" horiz-adv-x="623" d="M80 706q0 15 16 15h54q16 0 16 -15v-488q0 -81 42 -118t110 -37q73 0 107.5 40t34.5 106v497q0 15 16 15h51q16 0 16 -15v-488q0 -52 -13.5 -94.5t-41.5 -72.5t-71.5 -46t-103.5 -16q-109 0 -171 55.5t-62 167.5v494z" />
<glyph unicode="V" horiz-adv-x="575" d="M15 697q-2 6 -2 11q0 13 17 13h49q10 0 16.5 -3t9.5 -14l182 -592l187 591q3 11 9.5 14.5t16.5 3.5h45q17 0 17 -13q0 -5 -2 -11l-224 -680q-5 -17 -30 -17h-43q-25 0 -30 17z" />
<glyph unicode="W" horiz-adv-x="799" d="M20 691q-1 3 -2 8.5t-1 8.5q0 13 17 13h46q10 0 17 -3.5t9 -14.5l120 -560l125 438q5 17 30 17h38q25 0 30 -17l132 -447l115 568q2 11 9 15t17 4h43q17 0 17 -13q0 -4 -3 -16l-149 -675q-4 -17 -30 -17h-34q-25 0 -30 17l-137 461l-135 -461q-5 -17 -30 -17h-34 q-26 0 -30 17z" />
<glyph unicode="X" horiz-adv-x="516" d="M209 374l-177 315q-5 9 -6 12.5t-1 6.5q0 13 17 13h51q10 0 15.5 -3.5t10.5 -13.5l138 -250l137 250q5 10 10.5 13.5t15.5 3.5h44q17 0 17 -13q0 -3 -1 -6.5t-6 -12.5l-172 -310l196 -347q5 -9 6 -12.5t1 -6.5q0 -13 -17 -13h-50q-10 0 -15.5 3.5t-10.5 13.5l-158 282 l-154 -282q-5 -10 -10.5 -13.5t-15.5 -3.5h-46q-17 0 -17 13q0 3 1 6.5t6 12.5z" />
<glyph unicode="Y" horiz-adv-x="517" d="M212 294l-196 397q-6 12 -6 17q0 13 17 13h52q18 0 26 -17l155 -324l156 324q8 17 26 17h48q17 0 17 -13q0 -5 -6 -17l-203 -397v-279q0 -15 -16 -15h-54q-16 0 -16 15v279z" />
<glyph unicode="Z" horiz-adv-x="498" d="M25 54q0 11 2.5 17.5t6.5 12.5l331 559h-301q-15 0 -15 16v46q0 16 15 16h390q15 0 15 -16v-38q0 -11 -2.5 -17.5t-6.5 -12.5l-337 -559h335q15 0 15 -16v-46q0 -16 -15 -16h-418q-15 0 -15 16v38z" />
<glyph unicode="[" horiz-adv-x="298" d="M105 -123q-7 0 -11 4.5t-4 10.5v856q0 6 4 10.5t11 4.5h148q15 0 15 -16v-41q0 -16 -15 -16h-82v-740h82q15 0 15 -16v-41q0 -16 -15 -16h-148z" />
<glyph unicode="\" horiz-adv-x="365" d="M293 -123q-14 0 -20 2.5t-11 16.5l-252 825q-2 5 -3.5 10.5t-1.5 10.5q0 12 17 12h41q11 0 18.5 -3t10.5 -14l254 -830q2 -5 3 -9t1 -9q0 -12 -18 -12h-39z" />
<glyph unicode="]" horiz-adv-x="298" d="M30 -66q0 16 15 16h82v740h-82q-15 0 -15 16v41q0 16 15 16h148q7 0 11 -4.5t4 -10.5v-856q0 -6 -4 -10.5t-11 -4.5h-148q-15 0 -15 16v41z" />
<glyph unicode="^" horiz-adv-x="480" d="M193 708q4 6 7.5 9.5t11.5 3.5h48q8 0 11 -3.5t7 -9.5l128 -273q2 -2 3.5 -6.5t1.5 -8.5q0 -9 -14 -9h-54q-16 0 -22 13l-87 202l-88 -202q-3 -7 -6.5 -10t-11.5 -3h-57q-14 0 -14 9q0 4 2 8.5t4 6.5z" />
<glyph unicode="_" horiz-adv-x="463" d="M15 -108q0 15 15 15h402q16 0 16 -15v-44q0 -15 -15 -15h-403q-15 0 -15 15v44z" />
<glyph unicode="`" horiz-adv-x="500" d="M185 712q-3 7 -3 12q0 8 5.5 10.5t10.5 2.5h47q13 0 19 -15l53 -130q4 -10 4 -14q0 -12 -17 -12h-42q-9 0 -12.5 4t-7.5 12z" />
<glyph unicode="a" horiz-adv-x="466" d="M318 246h-83q-60 0 -85.5 -25t-25.5 -71q0 -47 24 -70.5t68 -23.5q30 0 54.5 9.5t47.5 25.5v155zM318 37q-23 -18 -55 -33t-70 -15q-69 0 -111 38.5t-42 116.5q0 45 14.5 77t41 52.5t63.5 29.5t81 9h78v34q0 50 -28 68.5t-68 18.5q-26 0 -48 -3.5t-38 -8.5q-11 -2 -17 -4 t-11 -2q-10 0 -13 14l-5 24l-2 11q-1 5 -1 10q0 11 16 15q5 1 18 4t30.5 6t39 5t42.5 2q77 0 121 -34.5t44 -121.5v-335q0 -15 -15 -15h-50q-15 0 -15 15v22z" />
<glyph unicode="b" horiz-adv-x="522" d="M72 739q0 15 15 15h52q15 0 15 -15v-283q28 20 60 35t80 15q92 0 137.5 -65t45.5 -182q0 -55 -13 -104t-42 -86t-74.5 -58.5t-109.5 -21.5q-51 0 -90.5 8.5t-56.5 16.5q-13 6 -16 15t-3 24v686zM154 73q10 -5 23 -9q11 -3 27.5 -5.5t36.5 -2.5q43 0 72 15.5t46 42.5 t24 64t7 80q0 37 -6 68.5t-20.5 55t-37 37t-55.5 13.5t-62 -13t-55 -33v-313z" />
<glyph unicode="c" horiz-adv-x="422" d="M389 28q0 -11 -3.5 -15.5t-10.5 -7.5q-12 -5 -41.5 -10.5t-62.5 -5.5q-66 0 -112 23.5t-72 63.5q-23 34 -32.5 78t-9.5 96q0 49 13 95t41 82t71 57.5t103 21.5q42 0 67.5 -6t42.5 -12q16 -5 16 -16q0 -4 -1 -10l-2 -10l-5 -24q-3 -14 -13 -14q-5 0 -10.5 1.5t-11.5 3.5 l-28 7q-20 5 -48 5q-42 0 -70.5 -14.5t-46 -39t-25 -58t-7.5 -72.5q0 -36 7 -69.5t23.5 -59t45 -40.5t72.5 -15q32 0 48.5 5t24.5 7q9 3 14 5t10 2q13 0 13 -12v-42z" />
<glyph unicode="d" horiz-adv-x="521" d="M369 40q-20 -20 -51 -35.5t-72 -15.5q-56 0 -94.5 20t-62 55t-34 81.5t-10.5 99.5q0 84 21.5 135t53 79t66.5 37.5t62 9.5q42 0 71 -12t47 -25v270q0 15 15 15h53q15 0 15 -15v-724q0 -15 -15 -15h-50q-15 0 -15 15v25zM366 401q-22 14 -46.5 23.5t-53.5 9.5 q-20 0 -43.5 -5t-44 -24t-34 -56.5t-13.5 -102.5q0 -39 7 -72.5t22.5 -58.5t40.5 -39.5t61 -14.5q54 0 104 36v304z" />
<glyph unicode="e" horiz-adv-x="476" d="M418 36q0 -11 -3.5 -15.5t-10.5 -7.5q-27 -11 -63 -17.5t-77 -6.5q-107 0 -163 67.5t-56 191.5q0 72 19 121.5t48.5 80t66 43.5t71.5 13q51 0 86 -19.5t57 -52t31.5 -75t9.5 -89.5v-28q0 -9 -5 -14t-13 -5h-286q0 -32 8 -61t25.5 -51t46 -35t69.5 -13q35 0 62 7.5 t40 12.5q9 3 14 5t10 2q13 0 13 -12v-42zM352 286q0 29 -4 56t-16 48t-33.5 33.5t-55.5 12.5q-26 0 -46.5 -11.5t-35 -31.5t-23 -47.5t-9.5 -59.5h223z" />
<glyph unicode="f" horiz-adv-x="318" d="M93 424h-73q-15 0 -15 15v40q0 15 15 15h76v114q0 41 12 70.5t33 48t49.5 27t61.5 8.5q35 0 51.5 -2.5t22.5 -4.5q14 -3 14 -14v-5l-2 -9l-4 -28q-2 -9 -4.5 -12t-9.5 -3t-18.5 2.5t-40.5 2.5q-45 0 -65 -20.5t-20 -69.5v-105h122q15 0 15 -15v-40q0 -15 -15 -15h-122 v-409q0 -15 -15 -15h-53q-15 0 -15 15v409z" />
<glyph unicode="g" horiz-adv-x="521" d="M366 399q-21 15 -47.5 26t-60.5 11q-28 0 -51.5 -9t-40 -30.5t-25.5 -56.5t-9 -87q0 -34 4 -67t17.5 -58.5t39 -41t68.5 -15.5q13 0 27.5 3t29 8t27 12t21.5 15v290zM100 -125q2 9 6 12t9 3t12.5 -2t16.5 -4q11 -2 34.5 -5.5t54.5 -3.5q72 0 102.5 26.5t30.5 79.5v65 q-56 -45 -130 -45q-53 0 -89 18.5t-59 51.5t-33 77t-10 95q0 78 18 129t46.5 81t65 41.5t72.5 11.5q32 0 64 -10.5t57 -34.5v18q0 15 15 15h51q15 0 15 -15v-490q0 -42 -11 -76t-36.5 -58.5t-67 -38t-102.5 -13.5q-39 0 -74 4t-48 9q-18 5 -18 15q0 5 1 10l2 10z" />
<glyph unicode="h" horiz-adv-x="520" d="M72 739q0 15 15 15h53q15 0 15 -15v-293q26 23 61.5 41.5t86.5 18.5q29 0 55 -8t46 -26t32 -46t12 -67v-344q0 -15 -15 -15h-53q-15 0 -15 15v319q0 56 -24.5 77.5t-66.5 21.5q-30 0 -58.5 -13.5t-60.5 -40.5v-364q0 -15 -15 -15h-53q-15 0 -15 15v724z" />
<glyph unicode="i" horiz-adv-x="227" d="M56 666q0 21 16 39.5t41 18.5q23 0 40.5 -16.5t17.5 -41.5q0 -23 -16.5 -39.5t-41.5 -16.5q-22 0 -39.5 15.5t-17.5 40.5zM72 479q0 15 15 15h53q15 0 15 -15v-464q0 -15 -15 -15h-53q-15 0 -15 15v464z" />
<glyph unicode="j" horiz-adv-x="227" d="M-37 -144q1 11 4.5 15t11.5 4t16 -1t19 -1q36 0 47 17t11 44v545q0 15 15 15h53q15 0 15 -15v-549q0 -72 -35 -99.5t-99 -27.5q-17 0 -28 0.5t-19 2.5q-13 3 -13 14q0 8 0.5 12t0.5 9zM56 666q0 21 16 39.5t41 18.5q23 0 40.5 -16.5t17.5 -41.5q0 -23 -16.5 -39.5 t-41.5 -16.5q-22 0 -39.5 15.5t-17.5 40.5z" />
<glyph unicode="k" horiz-adv-x="456" d="M72 739q0 15 15 15h53q15 0 15 -15v-425l158 161q9 10 16 14.5t21 4.5h50q17 0 17 -14q0 -8 -9 -17l-180 -177l213 -255q8 -11 8 -17q0 -14 -17 -14h-49q-14 0 -20.5 4t-14.5 15l-193 229v-233q0 -15 -15 -15h-53q-15 0 -15 15v724z" />
<glyph unicode="l" horiz-adv-x="227" d="M72 739q0 15 15 15h53q15 0 15 -15v-724q0 -15 -15 -15h-53q-15 0 -15 15v724z" />
<glyph unicode="m" horiz-adv-x="769" d="M72 479q0 15 15 15h52q15 0 15 -15v-33q29 27 62.5 43.5t78.5 16.5q37 0 69.5 -15t49.5 -51q29 26 65 46t78 20q63 0 101.5 -37.5t38.5 -102.5v-351q0 -15 -15 -15h-53q-15 0 -15 15v330q0 45 -20 66.5t-58 21.5q-29 0 -56.5 -13.5t-51.5 -36.5q1 -6 1.5 -14.5t0.5 -14.5 v-339q0 -15 -15 -15h-53q-15 0 -15 15v331q0 45 -20 66t-57 21q-29 0 -60 -15t-55 -38v-365q0 -15 -15 -15h-53q-15 0 -15 15v464z" />
<glyph unicode="n" horiz-adv-x="520" d="M72 479q0 15 15 15h53q15 0 15 -15v-33q26 23 61.5 41.5t86.5 18.5q29 0 55 -8t46 -26t32 -46t12 -67v-344q0 -15 -15 -15h-53q-15 0 -15 15v319q0 56 -24.5 77.5t-66.5 21.5q-30 0 -58.5 -13.5t-60.5 -40.5v-364q0 -15 -15 -15h-53q-15 0 -15 15v464z" />
<glyph unicode="o" horiz-adv-x="516" d="M258 506q57 0 97.5 -21t66 -56t37.5 -82t12 -99q0 -53 -12 -100t-37.5 -82t-66 -56t-97.5 -21t-97.5 21t-66 56t-37.5 82t-12 100q0 52 12 99t37.5 82.5t66 56t97.5 20.5zM258 434q-37 0 -61.5 -15t-39 -40.5t-20.5 -59.5t-6 -71q0 -38 6 -71.5t20.5 -59.5t39 -41 t61.5 -15t61.5 15t39 41t20.5 59.5t6 71.5q0 37 -6 71t-20.5 59.5t-39 40.5t-61.5 15z" />
<glyph unicode="p" horiz-adv-x="525" d="M155 103q20 -18 48 -30t61 -12q39 0 64 16t39.5 43t20 61.5t5.5 71.5q0 83 -28.5 132t-92.5 49q-32 0 -61.5 -13t-55.5 -33v-285zM72 479q0 15 15 15h53q15 0 15 -15v-28q28 23 61.5 39t77.5 16q94 0 140 -66.5t46 -181.5q0 -125 -53.5 -195.5t-153.5 -70.5 q-39 0 -69.5 12.5t-48.5 28.5v-205q0 -15 -15 -15h-53q-15 0 -15 15v651z" />
<glyph unicode="q" horiz-adv-x="522" d="M367 428q-11 3 -30.5 6.5t-50.5 3.5q-43 0 -72.5 -15.5t-48 -42t-26.5 -61t-8 -72.5q0 -57 12 -93t31 -56.5t42.5 -27.5t45.5 -7q27 0 53 6.5t52 21.5v337zM367 27q-17 -13 -50 -24t-68 -11q-55 0 -93.5 20t-63 54t-36 79t-11.5 95q0 53 12.5 101.5t41.5 85t77 58 t119 21.5q44 0 79 -6t54 -11q14 -4 18 -10t4 -17v-634q0 -15 -15 -15h-53q-15 0 -15 14v200z" />
<glyph unicode="r" horiz-adv-x="320" d="M72 479q0 15 15 15h52q15 0 15 -15v-33q24 24 59.5 39.5t64.5 15.5q11 0 16.5 -0.5t8.5 -1.5q13 -3 13 -13v-8q0 -4 -1 -12l-3 -34q-1 -16 -12 -16q-5 0 -14 1.5t-31 1.5q-32 0 -57.5 -12.5t-42.5 -27.5v-364q0 -15 -15 -15h-53q-15 0 -15 15v464z" />
<glyph unicode="s" horiz-adv-x="366" d="M26 76q0 13 13 13q5 0 12 -3l15 -5q12 -5 39 -12.5t62 -7.5q38 0 62 15.5t24 51.5q0 20 -7 34t-19.5 24.5t-29.5 18.5l-36 17q-23 10 -45.5 21.5t-40.5 28t-29.5 40t-11.5 58.5q0 33 13 58.5t35.5 42.5t52.5 26t64 9q38 0 63.5 -5t45.5 -12q16 -5 16 -16q0 -4 -1 -9 l-2 -11l-4 -19q-2 -11 -6.5 -13.5t-9.5 -2.5t-12.5 2.5t-16.5 4.5q-11 3 -30 6.5t-43 3.5q-37 0 -60.5 -15t-23.5 -46q0 -17 6 -28.5t17.5 -21t28.5 -17.5l38 -18l46 -23q23 -11 41.5 -28.5t30 -41.5t11.5 -59q0 -38 -13 -66t-35.5 -46t-52 -27t-63.5 -9q-35 0 -69.5 5.5 t-60.5 16.5q-7 3 -10.5 7.5t-3.5 15.5v42z" />
<glyph unicode="t" horiz-adv-x="329" d="M88 424h-68q-15 0 -15 15v40q0 15 15 15h68v108q0 15 15 15h53q15 0 15 -15v-108h114q15 0 15 -15v-40q0 -15 -15 -15h-114v-291q0 -32 18.5 -48.5t53.5 -16.5q29 0 42.5 4t20.5 4q13 0 13 -12v-39q0 -11 -3 -15.5t-12 -7.5q-8 -2 -27 -5t-50 -3q-68 0 -103.5 30 t-35.5 95v305z" />
<glyph unicode="u" horiz-adv-x="520" d="M72 480q0 15 15 15h53q15 0 15 -15v-319q0 -56 24.5 -77.5t66.5 -21.5q30 0 58.5 13.5t60.5 40.5v364q0 15 15 15h53q15 0 15 -15v-465q0 -15 -15 -15h-53q-15 0 -15 15v34q-26 -23 -61.5 -41.5t-86.5 -18.5q-29 0 -55 8t-46 26t-32 46t-12 67v344z" />
<glyph unicode="v" horiz-adv-x="453" d="M17 471q-2 6 -2 10q0 13 17 13h46q10 0 16 -3t10 -14l124 -380l123 380q4 11 10 14t16 3h44q17 0 17 -13q0 -4 -2 -10l-162 -454q-7 -17 -30 -17h-36q-23 0 -30 17z" />
<glyph unicode="w" horiz-adv-x="686" d="M17 471q-2 6 -2 10q0 13 17 13h43q10 0 16.5 -3t9.5 -14l104 -365l98 365q5 17 30 17h34q25 0 30 -17l97 -367l97 367q3 11 9.5 14t16.5 3h37q17 0 17 -13q0 -3 -1 -6.5t-3 -11.5l-129 -446q-5 -17 -30 -17h-32q-26 0 -30 17l-99 374l-100 -374q-5 -17 -30 -17h-32 q-25 0 -30 17z" />
<glyph unicode="x" horiz-adv-x="433" d="M168 257l-139 210q-5 8 -5 14q0 13 18 13h45q11 0 16 -2.5t10 -9.5l102 -159l101 159q5 7 10 9.5t16 2.5h39q18 0 18 -13q0 -6 -5 -14l-134 -207l155 -233q5 -8 5 -14q0 -13 -18 -13h-44q-11 0 -16 2.5t-10 9.5l-118 182l-115 -182q-5 -7 -10 -9.5t-16 -2.5h-42 q-18 0 -18 13q0 6 5 14z" />
<glyph unicode="y" horiz-adv-x="450" d="M7 -139q1 9 5.5 12t9.5 3q6 0 13 -1t28 -1q35 0 60 17t42 59l20 51l-167 470q-2 6 -2 10q0 13 17 13h46q10 0 16 -3t10 -14l122 -369l123 368q4 11 10 14.5t16 3.5h42q17 0 17 -13q0 -4 -2 -10l-179 -500q-14 -38 -28.5 -69t-36 -53t-52 -34t-76.5 -12q-19 0 -28.5 0.5 t-16.5 2.5q-14 3 -14 14v6q0 3 1 8z" />
<glyph unicode="z" horiz-adv-x="392" d="M20 57q0 10 3 16t7 11l246 340h-226q-15 0 -15 15v40q0 15 15 15h303q15 0 15 -15v-37q0 -10 -3 -16t-7 -11l-251 -345h250q15 0 15 -15v-40q0 -15 -15 -15h-322q-15 0 -15 15v42z" />
<glyph unicode="{" horiz-adv-x="322" d="M226 -123q-63 0 -91 31q-28 28 -28 84v270q0 29 -18.5 36.5t-44.5 9.5q-14 2 -14 16v49q0 6 3 10.5t11 5.5q12 1 23 2.5t20 7t14.5 16t5.5 30.5v182q0 62 22 99q11 20 35.5 29.5t54.5 9.5h77q15 0 15 -16v-41q0 -16 -15 -16h-60q-47 0 -47 -76v-165q0 -39 -14.5 -65.5 t-60.5 -35.5q44 -13 59.5 -39t15.5 -69v-234q0 -31 11.5 -44.5t36.5 -13.5h60q15 0 15 -16v-41q0 -16 -15 -16h-71z" />
<glyph unicode="|" horiz-adv-x="354" d="M135 706q0 15 15 15h57q15 0 15 -15v-851q0 -15 -15 -15h-57q-15 0 -15 15v851z" />
<glyph unicode="}" horiz-adv-x="322" d="M10 -66q0 16 15 16h60q25 0 36.5 13.5t11.5 44.5v234q0 43 15.5 69t59.5 39q-46 9 -60.5 35.5t-14.5 65.5v165q0 76 -47 76h-60q-15 0 -15 16v41q0 16 15 16h77q30 0 54.5 -9.5t35.5 -29.5q22 -37 22 -99v-182q0 -20 5.5 -30.5t14.5 -16t20 -7t23 -2.5q8 -1 11 -5.5 t3 -10.5v-49q0 -14 -14 -16q-26 -2 -44.5 -9.5t-18.5 -36.5v-270q0 -56 -28 -84q-28 -31 -91 -31h-71q-15 0 -15 16v41z" />
<glyph unicode="~" horiz-adv-x="603" d="M84 308q-15 0 -15 15q0 25 6 49.5t19 44.5q14 22 37 35t52 13q35 0 61.5 -12.5t54.5 -32.5l41 -31l32 -21q18 -12 37 -12q13 0 21.5 6t13.5 15.5t6.5 21t1.5 21.5q0 15 15 15h53q15 0 15 -15q0 -32 -7 -57t-20 -45q-13 -19 -33 -31.5t-49 -12.5q-37 0 -64 12t-56 34 l-44 31q-14 10 -32 19.5t-40 9.5q-14 0 -22 -5.5t-12 -14t-5 -18.5t-1 -19q0 -15 -14 -15h-52z" />
<glyph unicode="&#xa1;" horiz-adv-x="269" d="M101 513q0 15 16 15h36q16 0 16 -15l8 -501q0 -15 -16 -15h-56q-16 0 -16 15zM70 665q0 29 19 46.5t45 17.5q27 0 46 -18.5t19 -45.5q0 -29 -19.5 -47t-45.5 -18q-27 0 -45.5 18t-18.5 47z" />
<glyph unicode="&#xa2;" d="M294 -58q-15 0 -15 15v102q-50 7 -85.5 29t-57.5 56q-23 34 -32.5 78t-9.5 96q0 44 10.5 86t33 76.5t57.5 58.5t84 32v92q0 15 15 15h33q15 0 15 -15v-90q32 -2 53.5 -7t36.5 -10q16 -5 16 -16q0 -4 -1 -10l-2 -10l-5 -24q-3 -14 -13 -14q-5 0 -10.5 1.5t-11.5 3.5 q-7 2 -23.5 6t-39.5 6v-368q25 1 38 5.5t21 6.5q9 3 14 5t10 2q13 0 13 -12v-42q0 -11 -3.5 -15.5t-10.5 -7.5q-11 -5 -33 -9.5t-49 -6.5v-100q0 -15 -15 -15h-33zM279 492q-55 -16 -77 -64.5t-22 -112.5q0 -31 4.5 -59.5t16 -52.5t30.5 -41t48 -25v355z" />
<glyph unicode="&#xa3;" d="M50 60q0 6 4 11t11 5h47l43 273h-53q-15 0 -15 16v36q0 6 4 11t11 5h64l9 56q22 135 83.5 195.5t161.5 60.5q26 0 47.5 -3.5t34.5 -8.5q11 -4 14.5 -7t3.5 -8t-1 -10l-2 -11l-5 -27q-3 -14 -13 -14q-5 0 -11 1.5t-13 3.5q-14 4 -26.5 5.5t-31.5 1.5q-28 0 -51.5 -7 t-42.5 -26.5t-33.5 -54t-24.5 -90.5l-10 -57h188q6 -1 10 -6t4 -10v-36q0 -16 -16 -16h-198l-43 -273h294q7 0 11 -5t4 -11v-44q0 -16 -16 -16h-428q-15 0 -15 16v44z" />
<glyph unicode="&#xa4;" horiz-adv-x="617" d="M51 150l64 65q-19 28 -29.5 60t-10.5 68t10.5 68t29.5 60l-64 65l70 72l66 -67q27 16 57.5 25t64.5 9q33 0 63.5 -9.5t57.5 -25.5l66 68l70 -72l-64 -65q19 -28 29.5 -60t10.5 -68q0 -35 -10.5 -67.5t-29.5 -60.5l64 -65l-70 -72l-65 68q-27 -17 -57 -26t-65 -9 q-34 0 -64.5 9t-57.5 26l-66 -68zM309 199q29 0 54.5 11t44 30.5t29.5 46t11 56.5t-11 56t-29.5 45.5t-44 31t-54.5 11.5t-54.5 -11.5t-44.5 -31t-30 -45.5t-11 -56t11 -56.5t30 -46t44.5 -30.5t54.5 -11z" />
<glyph unicode="&#xa5;" d="M227 154h-130q-15 0 -15 16v36q0 6 4 11t11 5h130v91h-130q-15 0 -15 16v36q0 6 4 11t11 5h109l-175 310q-6 12 -6 17q0 13 17 13h52q10 0 15.5 -3.5t10.5 -13.5l155 -284l156 284q5 10 10.5 13.5t15.5 3.5h48q17 0 17 -13q0 -5 -6 -17l-178 -310h107q6 -1 10 -6t4 -10 v-36q0 -16 -16 -16h-130v-91h132q6 -1 10 -6t4 -10v-36q0 -16 -16 -16h-130v-139q0 -15 -16 -15h-54q-16 0 -16 15v139z" />
<glyph unicode="&#xa6;" horiz-adv-x="354" d="M135 187q0 15 15 15h57q15 0 15 -15v-332q0 -15 -15 -15h-57q-15 0 -15 15v332zM135 706q0 15 15 15h57q15 0 15 -15v-294q0 -15 -15 -15h-57q-15 0 -15 15v294z" />
<glyph unicode="&#xa7;" horiz-adv-x="489" d="M82 -34q3 16 14 16q5 0 11 -2.5t17 -7.5q20 -8 44 -14t51 -6q34 0 54 18t20 49q0 19 -10.5 35t-26 30t-32.5 25l-33 20q-66 38 -98.5 79.5t-32.5 99.5q0 28 8.5 52t22.5 45t32 38.5t37 32.5q-29 25 -42.5 52.5t-13.5 56.5q0 36 14.5 63t38 45t53 27t59.5 9q41 0 72 -7.5 t52 -17.5q11 -5 14.5 -8.5t3.5 -8.5t-1 -11l-2 -10l-4 -24q-3 -15 -13 -15q-8 0 -29 9q-20 8 -44.5 13.5t-51.5 5.5q-35 0 -54.5 -18.5t-19.5 -47.5q0 -32 29 -57.5t78 -56.5l49 -33q24 -17 42 -36.5t28.5 -44t10.5 -55.5q0 -29 -8.5 -53.5t-23 -46t-32.5 -39.5t-37 -33 q29 -29 42 -54.5t13 -56.5q0 -36 -13.5 -63t-36.5 -45t-53 -27t-62 -9q-37 0 -71 6.5t-54 15.5q-17 8 -17 23q0 4 0.5 8.5t1.5 9.5zM271 175q32 21 50.5 52.5t18.5 67.5q0 29 -13.5 50t-45.5 42l-70 45q-30 -24 -46.5 -50.5t-16.5 -56.5q0 -31 14 -57t46 -49z" />
<glyph unicode="&#xa8;" horiz-adv-x="500" d="M362 566q-25 0 -40.5 17t-15.5 40q0 21 15 38t41 17q24 0 40.5 -15.5t16.5 -39.5q0 -22 -14.5 -39.5t-42.5 -17.5zM155 566q-25 0 -40.5 17t-15.5 40q0 21 15 38t41 17q24 0 40.5 -15.5t16.5 -39.5q0 -22 -14.5 -39.5t-42.5 -17.5z" />
<glyph unicode="&#xa9;" horiz-adv-x="898" d="M556 189q0 -10 -4.5 -14.5t-11.5 -6.5q-8 -3 -28 -7.5t-51 -4.5q-53 0 -88.5 17.5t-57.5 46.5t-31 66.5t-9 76.5q0 34 9.5 71t31 67.5t57 50t87.5 19.5q24 0 43 -3.5t37 -8.5q12 -3 15 -7t3 -10q0 -5 -2 -15l-5 -20q-3 -12 -11 -12q-3 0 -19 4q-8 2 -22.5 4.5t-32.5 2.5 q-34 0 -56 -13t-35 -34t-18 -46.5t-5 -49.5q0 -25 4.5 -50t17.5 -45.5t35 -33t57 -12.5q14 0 25 2l22 4q9 2 16 4t12 2q15 0 15 -18v-27zM60 358q0 77 29 144.5t80 118t121.5 79.5t153.5 29t155 -29t125 -79.5t83.5 -118t30.5 -144.5t-30.5 -145t-83.5 -118.5t-125 -79.5 t-155 -29t-153.5 29t-121.5 79.5t-80 118.5t-29 145zM140 358q0 -63 22.5 -118.5t63 -96.5t96 -64.5t121.5 -23.5q67 0 124.5 23.5t100 64.5t66.5 96.5t24 118.5t-24 118t-66.5 96.5t-100 65t-124.5 23.5q-66 0 -121.5 -23.5t-96 -65t-63 -96.5t-22.5 -118z" />
<glyph unicode="&#xaa;" horiz-adv-x="429" d="M270 517h-62q-44 0 -63.5 -19.5t-19.5 -53.5t18 -52.5t50 -18.5q22 0 41 7t36 18v119zM270 346q-18 -13 -43 -23t-53 -10q-56 0 -90 32t-34 95q0 73 44.5 103t117.5 30h58v25q0 37 -22.5 51t-51.5 14q-17 0 -34 -2.5t-30 -6.5l-16 -4q-6 -2 -11 -2q-10 0 -13 16l-4 21 q-1 3 -2 8t-1 9q0 9 17 14q4 1 14 3l25 5q14 2 31 3.5t34 1.5q63 0 100.5 -28.5t37.5 -99.5v-263q0 -17 -16 -17h-42q-16 0 -16 17v8z" />
<glyph unicode="&#xab;" horiz-adv-x="503" d="M56 249q-6 6 -6 14v6q0 6 4 12l102 143q8 11 15.5 15t21.5 4h46q17 0 17 -14q0 -6 -9 -18l-103 -140l103 -142q9 -12 9 -18q0 -14 -17 -14h-46q-14 0 -21.5 4t-15.5 15zM253 249q-6 6 -6 14v6q0 6 4 12l102 143q8 11 15.5 15t21.5 4h46q17 0 17 -14q0 -6 -9 -18 l-103 -140l103 -142q9 -12 9 -18q0 -14 -17 -14h-46q-14 0 -21.5 4t-15.5 15z" />
<glyph unicode="&#xac;" d="M84 354q0 15 15 15h345q16 0 16 -17v-165q0 -15 -15 -15h-44q-15 0 -15 15v108h-287q-15 0 -15 15v44z" />
<glyph unicode="&#xad;" horiz-adv-x="463" d="M77 316q0 15 15 15h286q16 0 16 -15v-49q0 -15 -15 -15h-287q-15 0 -15 15v49z" />
<glyph unicode="&#xae;" horiz-adv-x="898" d="M60 358q0 77 29 144.5t80 118t121.5 79.5t153.5 29t155 -29t125 -79.5t83.5 -118t30.5 -144.5t-30.5 -145t-83.5 -118.5t-125 -79.5t-155 -29t-153.5 29t-121.5 79.5t-80 118.5t-29 145zM140 358q0 -63 22.5 -118.5t63 -96.5t96 -64.5t121.5 -23.5q67 0 124.5 23.5 t100 64.5t66.5 96.5t24 118.5t-24 118t-66.5 96.5t-100 65t-124.5 23.5q-66 0 -121.5 -23.5t-96 -65t-63 -96.5t-22.5 -118zM331 173q-8 0 -11.5 4.5t-3.5 9.5v355q0 18 18 18h106q32 0 56 -3.5t44 -12.5q32 -14 45.5 -41.5t13.5 -59.5q0 -35 -19 -65.5t-57 -46.5l85 -136 q2 -2 3.5 -5.5t1.5 -7.5q0 -9 -13 -9h-51q-5 0 -10.5 2t-10.5 10l-79 134h-59v-132q0 -5 -3.5 -9.5t-11.5 -4.5h-44zM391 380h64q38 0 52 18.5t14 41.5q0 24 -14.5 41t-51.5 17h-64v-118z" />
<glyph unicode="&#xaf;" horiz-adv-x="571" d="M127 648q0 15 15 15h287q16 0 16 -15v-39q0 -15 -15 -15h-288q-15 0 -15 15v39z" />
<glyph unicode="&#xb0;" horiz-adv-x="403" d="M65 607q0 27 9.5 52t27 44t43 30.5t57.5 11.5q30 0 55 -11t43 -29.5t28 -44t10 -53.5q0 -27 -9.5 -51.5t-27 -42.5t-43 -29t-56.5 -11q-62 0 -99.5 38t-37.5 96zM202 534q31 0 50 21t19 52q0 28 -17 52t-52 24q-32 0 -51 -22t-19 -54q0 -29 18 -51t52 -22z" />
<glyph unicode="&#xb1;" d="M229 295h-122q-15 0 -15 15v44q0 15 15 15h122v139q0 15 15 15h51q15 0 15 -15v-139h126q16 0 16 -15v-44q0 -15 -15 -15h-127v-138q0 -16 -15 -16h-51q-15 0 -15 15v139zM92 60q0 15 15 15h329q16 0 16 -15v-44q0 -15 -15 -15h-330q-15 0 -15 15v44z" />
<glyph unicode="&#xb2;" horiz-adv-x="400" d="M61 329q0 13 10 22l64 62q31 31 54 59q30 38 43 69t13 59q0 39 -20 51.5t-45 12.5q-20 0 -36.5 -3t-29.5 -8q-9 -3 -16 -5t-12 -2q-7 0 -9 3.5t-4 12.5l-3 19q-1 5 -1.5 9t-0.5 7q0 8 16 13q7 3 18.5 6t25.5 6t29.5 5t29.5 2q63 0 99 -33t36 -88q0 -48 -17.5 -84 t-45.5 -72q-20 -26 -47 -54l-50 -50h153q19 0 19 -18v-25q0 -18 -22 -18h-227q-24 0 -24 18v24z" />
<glyph unicode="&#xb3;" horiz-adv-x="400" d="M67 349q0 14 11 14q8 0 31.5 -8.5t60.5 -8.5q35 0 58.5 15.5t23.5 53.5q0 34 -21 52.5t-59 18.5h-37q-23 0 -23 18v24q0 8 5.5 13t17.5 5h34q29 0 53 14.5t24 49.5q0 32 -18 44.5t-49 12.5q-13 0 -26 -2t-21 -4q-12 -3 -20.5 -5.5t-13.5 -2.5q-8 0 -11 9l-7 22 q-3 9 -3 14q0 9 15 15q17 6 41 11t56 5q28 0 52.5 -6.5t43 -20.5t29 -35t10.5 -50q0 -38 -18.5 -61.5t-42.5 -37.5q31 -13 49 -39t18 -63q0 -67 -42.5 -99.5t-116.5 -32.5q-29 0 -52.5 4.5t-34.5 7.5q-9 3 -13 7.5t-4 14.5v31z" />
<glyph unicode="&#xb4;" horiz-adv-x="500" d="M217 566q-17 0 -17 12q0 4 4 14l53 130q6 15 19 15h47q5 0 10.5 -2.5t5.5 -10.5q0 -5 -3 -12l-57 -130q-4 -8 -7.5 -12t-12.5 -4h-42z" />
<glyph unicode="&#xb5;" horiz-adv-x="520" d="M72 480q0 15 15 15h53q15 0 15 -15v-325q0 -53 25 -73t66 -20q30 0 58.5 13.5t60.5 40.5v364q0 15 15 15h53q15 0 15 -15v-465q0 -15 -15 -15h-53q-15 0 -15 15v34q-26 -23 -61.5 -41.5t-86.5 -18.5q-32 0 -62 11v-172q0 -15 -15 -15h-53q-15 0 -15 15v652z" />
<glyph unicode="&#xb6;" horiz-adv-x="593" d="M277 -123q-15 0 -15 15v372q-48 0 -87.5 16.5t-68.5 47.5t-45 73.5t-16 95.5q0 50 15.5 91.5t45 71t71 45.5t93.5 16h284q7 0 10.5 -4.5t3.5 -10.5v-43q0 -15 -15 -15h-59v-757q0 -6 -4.5 -10t-10.5 -4h-39q-15 0 -15 15v756h-94v-757q0 -6 -4.5 -10t-10.5 -4h-39z" />
<glyph unicode="&#xb7;" horiz-adv-x="279" d="M139 274q-28 0 -48.5 18.5t-20.5 50.5q0 31 20 50.5t49 19.5q28 0 49 -19t21 -51q0 -29 -20.5 -49t-49.5 -20z" />
<glyph unicode="&#xb8;" horiz-adv-x="500" d="M192 -133q3 9 8 9t16 -4.5t29 -4.5t25.5 8t7.5 21q0 16 -10.5 23.5t-24.5 12.5q-7 3 -7 8q0 3 2 11l11 57l51 -2l-10 -50q58 -16 58 -68q0 -14 -4.5 -27t-15 -24t-28 -17.5t-42.5 -6.5q-23 0 -40.5 4.5t-22.5 6.5q-10 3 -10 9q0 3 2 11z" />
<glyph unicode="&#xb9;" horiz-adv-x="400" d="M67 334q0 15 15 15h80v304l-66 -13q-10 -2 -16 -2q-13 0 -13 16v28q0 14 17 18l68 15q22 6 45 6h23q16 0 16 -15v-357h79q15 0 15 -15v-32q0 -15 -15 -15h-233q-15 0 -15 15v32z" />
<glyph unicode="&#xba;" horiz-adv-x="470" d="M235 729q46 0 78 -16.5t52.5 -45t30 -65.5t9.5 -79t-9.5 -79.5t-30 -66t-52.5 -45t-78 -16.5t-78 16.5t-52.5 45t-30 66t-9.5 79.5t9.5 79.5t30 65.5t52.5 44.5t78 16.5zM235 660q-26 0 -44 -11.5t-28.5 -30t-15 -43.5t-4.5 -52t4.5 -52t15 -44.5t28.5 -31t44 -11.5 t44 11.5t28.5 31t15 44.5t4.5 52t-4.5 51.5t-15 43.5t-28.5 30.5t-44 11.5z" />
<glyph unicode="&#xbb;" horiz-adv-x="503" d="M67 97q-17 0 -17 14q0 6 9 18l103 142l-103 140q-9 12 -9 18q0 14 17 14h46q14 0 21.5 -4t15.5 -15l102 -143q4 -6 4 -12v-6q0 -8 -6 -14l-100 -133q-8 -11 -15.5 -15t-21.5 -4h-46zM264 97q-17 0 -17 14q0 6 9 18l103 142l-103 140q-9 12 -9 18q0 14 17 14h46 q14 0 21.5 -4t15.5 -15l102 -143q4 -6 4 -12v-6q0 -8 -6 -14l-100 -133q-8 -11 -15.5 -15t-21.5 -4h-46z" />
<glyph unicode="&#xbc;" horiz-adv-x="960" d="M72 334q0 15 15 15h80v304l-66 -13q-10 -2 -16 -2q-13 0 -13 16v28q0 14 17 18l68 15q22 6 45 6h23q16 0 16 -15v-357h79q15 0 15 -15v-32q0 -15 -15 -15h-233q-15 0 -15 15v32zM648 702q7 13 15 16t22 3h26q17 0 17 -12q0 -5 -2 -9.5t-4 -8.5l-357 -672q-7 -13 -15 -16 t-22 -3h-28q-18 0 -18 12q0 5 2.5 9.5t4.5 8.5zM764 180v173l-120 -173h120zM582 170q0 11 6 19l163 235q5 8 9.5 9.5t9.5 1.5h54q10 0 10 -9v-246h46q9 0 9 -9v-40q0 -9 -9 -9h-46v-112q0 -9 -10 -9h-50q-10 0 -10 9v112h-173q-9 0 -9 9v39z" />
<glyph unicode="&#xbd;" horiz-adv-x="960" d="M72 334q0 15 15 15h80v304l-66 -13q-10 -2 -16 -2q-13 0 -13 16v28q0 14 17 18l68 15q22 6 45 6h23q16 0 16 -15v-357h79q15 0 15 -15v-32q0 -15 -15 -15h-233q-15 0 -15 15v32zM633 702q7 13 15 16t22 3h26q17 0 17 -12q0 -5 -2 -9.5t-4 -8.5l-357 -672q-7 -13 -15 -16 t-22 -3h-28q-18 0 -18 12q0 5 2.5 9.5t4.5 8.5zM630 43q0 13 10 22l64 62q31 31 54 59q30 38 43 69t13 59q0 39 -20 51.5t-45 12.5q-20 0 -36.5 -3t-29.5 -8q-9 -3 -16 -5t-12 -2q-7 0 -9 3.5t-4 12.5l-3 19q-1 5 -1.5 9t-0.5 7q0 8 16 13q7 3 18.5 6t25.5 6t29.5 5t29.5 2 q63 0 99 -33t36 -88q0 -48 -17.5 -84t-45.5 -72q-20 -26 -47 -54l-50 -50h153q19 0 19 -18v-25q0 -18 -22 -18h-227q-24 0 -24 18v24z" />
<glyph unicode="&#xbe;" horiz-adv-x="960" d="M72 349q0 14 11 14q8 0 31.5 -8.5t60.5 -8.5q35 0 58.5 15.5t23.5 53.5q0 34 -21 52.5t-59 18.5h-37q-23 0 -23 18v24q0 8 5.5 13t17.5 5h34q29 0 53 14.5t24 49.5q0 32 -18 44.5t-49 12.5q-13 0 -26 -2t-21 -4q-12 -3 -20.5 -5.5t-13.5 -2.5q-8 0 -11 9l-7 22 q-3 9 -3 14q0 9 15 15q17 6 41 11t56 5q28 0 52.5 -6.5t43 -20.5t29 -35t10.5 -50q0 -38 -18.5 -61.5t-42.5 -37.5q31 -13 49 -39t18 -63q0 -67 -42.5 -99.5t-116.5 -32.5q-29 0 -52.5 4.5t-34.5 7.5q-9 3 -13 7.5t-4 14.5v31zM629 702q7 13 15 16t22 3h26q17 0 17 -12 q0 -5 -2 -9.5t-4 -8.5l-357 -672q-7 -13 -15 -16t-22 -3h-28q-18 0 -18 12q0 5 2.5 9.5t4.5 8.5zM754 180v173l-120 -173h120zM572 170q0 11 6 19l163 235q5 8 9.5 9.5t9.5 1.5h54q10 0 10 -9v-246h46q9 0 9 -9v-40q0 -9 -9 -9h-46v-112q0 -9 -10 -9h-50q-10 0 -10 9v112 h-173q-9 0 -9 9v39z" />
<glyph unicode="&#xbf;" horiz-adv-x="412" d="M307 423q0 -6 -1.5 -12t-7.5 -11l-45 -36q-26 -21 -50.5 -43.5t-43.5 -47.5t-30 -51.5t-11 -56.5q0 -55 30.5 -80t83.5 -25q29 0 54 6t53 17q7 2 13 4.5t11 2.5q10 0 13 -14l3 -17l2 -11q1 -5 1 -10q0 -6 -3.5 -11t-15.5 -10q-32 -12 -65.5 -20t-77.5 -8q-87 0 -136 44 t-49 125q0 38 11 71.5t30.5 63.5t46.5 56.5t58 50.5l50 38v75q0 15 16 15h44q16 0 16 -15v-90zM332 665q0 -29 -18.5 -47t-45.5 -18q-26 0 -45.5 18t-19.5 47q0 27 19 45.5t46 18.5q26 0 45 -17.5t19 -46.5z" />
<glyph unicode="&#xc0;" horiz-adv-x="576" d="M241 704q5 17 30 17h36q25 0 30 -17l224 -681q2 -6 2 -10q0 -13 -17 -13h-50q-10 0 -16.5 3t-9.5 14l-59 186h-251l-59 -186q-3 -11 -9.5 -14t-16.5 -3h-45q-17 0 -17 13q0 4 2 10zM389 272l-102 325l-105 -325h207zM199 879q-2 4 -2.5 7t-0.5 5q0 8 5.5 10.5t10.5 2.5 h53q12 0 20 -15l44 -89q4 -10 4 -14q0 -12 -17 -12h-46q-9 0 -13.5 4t-9.5 12z" />
<glyph unicode="&#xc1;" horiz-adv-x="576" d="M241 704q5 17 30 17h36q25 0 30 -17l224 -681q2 -6 2 -10q0 -13 -17 -13h-50q-10 0 -16.5 3t-9.5 14l-59 186h-251l-59 -186q-3 -11 -9.5 -14t-16.5 -3h-45q-17 0 -17 13q0 4 2 10zM389 272l-102 325l-105 -325h207zM268 774q-17 0 -17 12q0 4 4 14l44 89q7 15 20 15h53 q5 0 10.5 -2.5t5.5 -10.5q0 -2 -0.5 -5t-2.5 -7l-48 -89q-5 -8 -9.5 -12t-13.5 -4h-46z" />
<glyph unicode="&#xc2;" horiz-adv-x="576" d="M241 704q5 17 30 17h36q25 0 30 -17l224 -681q2 -6 2 -10q0 -13 -17 -13h-50q-10 0 -16.5 3t-9.5 14l-59 186h-251l-59 -186q-3 -11 -9.5 -14t-16.5 -3h-45q-17 0 -17 13q0 4 2 10zM389 272l-102 325l-105 -325h207zM232 891q5 5 10.5 9t13.5 4h67q8 0 12 -4l9 -9l77 -93 q3 -4 6 -7.5t3 -7.5q0 -9 -15 -9h-49q-8 0 -13 4t-10 9l-55 66l-54 -66q-5 -6 -9 -9.5t-12 -3.5h-54q-13 0 -13 9q0 6 7 15z" />
<glyph unicode="&#xc3;" horiz-adv-x="576" d="M241 704q5 17 30 17h36q25 0 30 -17l224 -681q2 -6 2 -10q0 -13 -17 -13h-50q-10 0 -16.5 3t-9.5 14l-59 186h-251l-59 -186q-3 -11 -9.5 -14t-16.5 -3h-45q-17 0 -17 13q0 4 2 10zM389 272l-102 325l-105 -325h207zM147 800q-6 0 -10 2.5t-4 10.5q0 17 4.5 36.5 t12.5 35.5q18 32 60 32q24 0 43 -8t40 -25l27 -23q8 -7 17.5 -12.5t21.5 -5.5q15 0 19.5 13.5t4.5 26.5q0 8 4 10.5t10 2.5h35q3 0 7 -2t4 -9q0 -48 -17 -79q-18 -30 -55 -30q-26 0 -45.5 8t-39.5 24l-28 23q-11 7 -19.5 14t-22.5 7q-8 0 -12.5 -4.5t-6.5 -11t-3 -13.5 t-1 -12q0 -7 -4 -9t-7 -2h-35z" />
<glyph unicode="&#xc4;" horiz-adv-x="576" d="M241 704q5 17 30 17h36q25 0 30 -17l224 -681q2 -6 2 -10q0 -13 -17 -13h-50q-10 0 -16.5 3t-9.5 14l-59 186h-251l-59 -186q-3 -11 -9.5 -14t-16.5 -3h-45q-17 0 -17 13q0 4 2 10zM389 272l-102 325l-105 -325h207zM392 781q-25 0 -40.5 17t-15.5 40q0 21 15 38t41 17 q24 0 40.5 -15.5t16.5 -39.5q0 -22 -14.5 -39.5t-42.5 -17.5zM185 781q-25 0 -40.5 17t-15.5 40q0 21 15 38t41 17q24 0 40.5 -15.5t16.5 -39.5q0 -22 -14.5 -39.5t-42.5 -17.5z" />
<glyph unicode="&#xc5;" horiz-adv-x="576" d="M241 704q0 3 2 5q-32 12 -49.5 39t-17.5 63q0 22 8 43t22.5 36.5t35.5 25t47 9.5q25 0 45.5 -9t35.5 -24.5t23 -36.5t8 -44q0 -34 -17.5 -61t-49.5 -40l3 -6l224 -681q2 -6 2 -10q0 -13 -17 -13h-50q-10 0 -16.5 3t-9.5 14l-59 186h-251l-59 -186q-3 -11 -9.5 -14 t-16.5 -3h-45q-17 0 -17 13q0 4 2 10zM389 272l-102 325l-105 -325h207zM289 755q23 0 38.5 16.5t15.5 39.5q0 22 -13 40.5t-41 18.5q-25 0 -40 -17t-15 -42q0 -23 14.5 -39.5t40.5 -16.5z" />
<glyph unicode="&#xc6;" horiz-adv-x="819" d="M365 707q3 5 8 9.5t14 4.5h373q15 0 15 -16v-46q0 -16 -15 -16h-265v-236h247q15 0 15 -16v-46q0 -16 -15 -16h-247v-251h275q15 0 15 -16v-46q0 -16 -15 -16h-345q-16 0 -16 15v190h-216l-96 -186q-6 -11 -13.5 -15t-21.5 -4h-42q-15 0 -15 12q0 5 3 11t8 14zM409 277 v344l-179 -344h179z" />
<glyph unicode="&#xc7;" horiz-adv-x="499" d="M481 33q0 -12 -4 -16.5t-11 -7.5q-11 -5 -42.5 -12.5t-82.5 -7.5q-81 0 -135.5 31.5t-87.5 83.5t-47 118.5t-14 136.5q0 64 13.5 130t45.5 119.5t85 87t133 33.5q39 0 72.5 -6t59.5 -16q12 -5 15.5 -9t3.5 -9t-1 -11l-2 -10l-6 -29q-3 -14 -13 -14q-5 0 -10.5 2t-12.5 4 q-12 5 -40.5 11.5t-63.5 6.5q-57 0 -93.5 -27t-57 -69t-28.5 -93.5t-8 -100.5q0 -48 7.5 -99.5t29.5 -94t62 -70t104 -27.5q31 0 55.5 7t34.5 11q18 7 25 7q14 0 14 -12v-48zM248 -133q3 9 8 9t16 -4.5t29 -4.5t25.5 8t7.5 21q0 16 -10.5 23.5t-24.5 12.5q-7 3 -7 8 q0 3 2 11l11 57l51 -2l-10 -50q58 -16 58 -68q0 -14 -4.5 -27t-15 -24t-28 -17.5t-42.5 -6.5q-23 0 -40.5 4.5t-22.5 6.5q-10 3 -10 9q0 3 2 11z" />
<glyph unicode="&#xc8;" horiz-adv-x="500" d="M106 0q-16 0 -16 15v691q0 15 16 15h335q15 0 15 -16v-46q0 -16 -15 -16h-265v-236h247q15 0 15 -16v-46q0 -16 -15 -16h-247v-251h275q15 0 15 -16v-46q0 -16 -15 -16h-345zM188 879q-2 4 -2.5 7t-0.5 5q0 8 5.5 10.5t10.5 2.5h53q12 0 20 -15l44 -89q4 -10 4 -14 q0 -12 -17 -12h-46q-9 0 -13.5 4t-9.5 12z" />
<glyph unicode="&#xc9;" horiz-adv-x="500" d="M106 0q-16 0 -16 15v691q0 15 16 15h335q15 0 15 -16v-46q0 -16 -15 -16h-265v-236h247q15 0 15 -16v-46q0 -16 -15 -16h-247v-251h275q15 0 15 -16v-46q0 -16 -15 -16h-345zM249 774q-17 0 -17 12q0 4 4 14l44 89q7 15 20 15h53q5 0 10.5 -2.5t5.5 -10.5q0 -2 -0.5 -5 t-2.5 -7l-48 -89q-5 -8 -9.5 -12t-13.5 -4h-46z" />
<glyph unicode="&#xca;" horiz-adv-x="500" d="M106 0q-16 0 -16 15v691q0 15 16 15h335q15 0 15 -16v-46q0 -16 -15 -16h-265v-236h247q15 0 15 -16v-46q0 -16 -15 -16h-247v-251h275q15 0 15 -16v-46q0 -16 -15 -16h-345zM219 891q5 5 10.5 9t13.5 4h67q8 0 12 -4l9 -9l77 -93q3 -4 6 -7.5t3 -7.5q0 -9 -15 -9h-49 q-8 0 -13 4t-10 9l-55 66l-54 -66q-5 -6 -9 -9.5t-12 -3.5h-54q-13 0 -13 9q0 6 7 15z" />
<glyph unicode="&#xcb;" horiz-adv-x="500" d="M106 0q-16 0 -16 15v691q0 15 16 15h335q15 0 15 -16v-46q0 -16 -15 -16h-265v-236h247q15 0 15 -16v-46q0 -16 -15 -16h-247v-251h275q15 0 15 -16v-46q0 -16 -15 -16h-345zM384 781q-25 0 -40.5 17t-15.5 40q0 21 15 38t41 17q24 0 40.5 -15.5t16.5 -39.5 q0 -22 -14.5 -39.5t-42.5 -17.5zM177 781q-25 0 -40.5 17t-15.5 40q0 21 15 38t41 17q24 0 40.5 -15.5t16.5 -39.5q0 -22 -14.5 -39.5t-42.5 -17.5z" />
<glyph unicode="&#xcc;" horiz-adv-x="266" d="M106 0q-16 0 -16 15v691q0 15 16 15h54q16 0 16 -15v-691q0 -15 -16 -15h-54zM39 879q-2 4 -2.5 7t-0.5 5q0 8 5.5 10.5t10.5 2.5h53q12 0 20 -15l44 -89q4 -10 4 -14q0 -12 -17 -12h-46q-9 0 -13.5 4t-9.5 12z" />
<glyph unicode="&#xcd;" horiz-adv-x="266" d="M106 0q-16 0 -16 15v691q0 15 16 15h54q16 0 16 -15v-691q0 -15 -16 -15h-54zM112 774q-17 0 -17 12q0 4 4 14l44 89q7 15 20 15h53q5 0 10.5 -2.5t5.5 -10.5q0 -2 -0.5 -5t-2.5 -7l-48 -89q-5 -8 -9.5 -12t-13.5 -4h-46z" />
<glyph unicode="&#xce;" horiz-adv-x="266" d="M106 0q-16 0 -16 15v691q0 15 16 15h54q16 0 16 -15v-691q0 -15 -16 -15h-54zM78 891q5 5 10.5 9t13.5 4h67q8 0 12 -4l9 -9l77 -93q3 -4 6 -7.5t3 -7.5q0 -9 -15 -9h-49q-8 0 -13 4t-10 9l-55 66l-54 -66q-5 -6 -9 -9.5t-12 -3.5h-54q-13 0 -13 9q0 6 7 15z" />
<glyph unicode="&#xcf;" horiz-adv-x="266" d="M106 0q-16 0 -16 15v691q0 15 16 15h54q16 0 16 -15v-691q0 -15 -16 -15h-54zM238 781q-25 0 -40.5 17t-15.5 40q0 21 15 38t41 17q24 0 40.5 -15.5t16.5 -39.5q0 -22 -14.5 -39.5t-42.5 -17.5zM31 781q-25 0 -40.5 17t-15.5 40q0 21 15 38t41 17q24 0 40.5 -15.5 t16.5 -39.5q0 -22 -14.5 -39.5t-42.5 -17.5z" />
<glyph unicode="&#xd0;" horiz-adv-x="614" d="M90 333h-59q-15 0 -15 15v44q0 15 15 15h59v299q0 15 16 15h156q89 0 148 -29t94.5 -78t50 -115t14.5 -139q0 -74 -15 -139.5t-50 -114.5t-94.5 -77.5t-147.5 -28.5h-156q-16 0 -16 15v318zM276 77q55 0 93.5 22t62.5 60t34.5 90t10.5 111q0 60 -10.5 111.5t-34.5 90 t-62.5 60.5t-93.5 22h-100v-237h151q16 0 16 -15v-44q0 -15 -15 -15h-152v-256h100z" />
<glyph unicode="&#xd1;" horiz-adv-x="638" d="M90 706q0 15 16 15h52q13 0 20 -13l287 -541v539q0 15 16 15h51q16 0 16 -15v-691q0 -15 -16 -15h-51q-14 0 -20 13l-288 541v-539q0 -15 -16 -15h-51q-16 0 -16 15v691zM178 800q-6 0 -10 2.5t-4 10.5q0 17 4.5 36.5t12.5 35.5q18 32 60 32q24 0 43 -8t40 -25l27 -23 q8 -7 17.5 -12.5t21.5 -5.5q15 0 19.5 13.5t4.5 26.5q0 8 4 10.5t10 2.5h35q3 0 7 -2t4 -9q0 -48 -17 -79q-18 -30 -55 -30q-26 0 -45.5 8t-39.5 24l-28 23q-11 7 -19.5 14t-22.5 7q-8 0 -12.5 -4.5t-6.5 -11t-3 -13.5t-1 -12q0 -7 -4 -9t-7 -2h-35z" />
<glyph unicode="&#xd2;" horiz-adv-x="644" d="M322 653q-59 0 -93.5 -30t-52 -74t-22.5 -95.5t-5 -94.5t5 -94.5t22.5 -95.5t52 -74t93.5 -30t93.5 30t52 74t22.5 95.5t5 94.5t-5 94.5t-22.5 95.5t-52 74t-93.5 30zM322 729q77 0 128 -31t81.5 -83t43 -118.5t12.5 -137.5t-12.5 -137.5t-43 -118.5t-81.5 -83t-128 -31 t-128 31t-81.5 83t-43 118.5t-12.5 137.5t12.5 137.5t43 118.5t81.5 83t128 31zM253 879q-2 4 -2.5 7t-0.5 5q0 8 5.5 10.5t10.5 2.5h53q12 0 20 -15l44 -89q4 -10 4 -14q0 -12 -17 -12h-46q-9 0 -13.5 4t-9.5 12z" />
<glyph unicode="&#xd3;" horiz-adv-x="644" d="M322 653q-59 0 -93.5 -30t-52 -74t-22.5 -95.5t-5 -94.5t5 -94.5t22.5 -95.5t52 -74t93.5 -30t93.5 30t52 74t22.5 95.5t5 94.5t-5 94.5t-22.5 95.5t-52 74t-93.5 30zM322 729q77 0 128 -31t81.5 -83t43 -118.5t12.5 -137.5t-12.5 -137.5t-43 -118.5t-81.5 -83t-128 -31 t-128 31t-81.5 83t-43 118.5t-12.5 137.5t12.5 137.5t43 118.5t81.5 83t128 31zM300 774q-17 0 -17 12q0 4 4 14l44 89q7 15 20 15h53q5 0 10.5 -2.5t5.5 -10.5q0 -2 -0.5 -5t-2.5 -7l-48 -89q-5 -8 -9.5 -12t-13.5 -4h-46z" />
<glyph unicode="&#xd4;" horiz-adv-x="644" d="M322 653q-59 0 -93.5 -30t-52 -74t-22.5 -95.5t-5 -94.5t5 -94.5t22.5 -95.5t52 -74t93.5 -30t93.5 30t52 74t22.5 95.5t5 94.5t-5 94.5t-22.5 95.5t-52 74t-93.5 30zM322 729q77 0 128 -31t81.5 -83t43 -118.5t12.5 -137.5t-12.5 -137.5t-43 -118.5t-81.5 -83t-128 -31 t-128 31t-81.5 83t-43 118.5t-12.5 137.5t12.5 137.5t43 118.5t81.5 83t128 31zM266 891q5 5 10.5 9t13.5 4h67q8 0 12 -4l9 -9l77 -93q3 -4 6 -7.5t3 -7.5q0 -9 -15 -9h-49q-8 0 -13 4t-10 9l-55 66l-54 -66q-5 -6 -9 -9.5t-12 -3.5h-54q-13 0 -13 9q0 6 7 15z" />
<glyph unicode="&#xd5;" horiz-adv-x="644" d="M322 653q-59 0 -93.5 -30t-52 -74t-22.5 -95.5t-5 -94.5t5 -94.5t22.5 -95.5t52 -74t93.5 -30t93.5 30t52 74t22.5 95.5t5 94.5t-5 94.5t-22.5 95.5t-52 74t-93.5 30zM322 729q77 0 128 -31t81.5 -83t43 -118.5t12.5 -137.5t-12.5 -137.5t-43 -118.5t-81.5 -83t-128 -31 t-128 31t-81.5 83t-43 118.5t-12.5 137.5t12.5 137.5t43 118.5t81.5 83t128 31zM181 800q-6 0 -10 2.5t-4 10.5q0 17 4.5 36.5t12.5 35.5q18 32 60 32q24 0 43 -8t40 -25l27 -23q8 -7 17.5 -12.5t21.5 -5.5q15 0 19.5 13.5t4.5 26.5q0 8 4 10.5t10 2.5h35q3 0 7 -2t4 -9 q0 -48 -17 -79q-18 -30 -55 -30q-26 0 -45.5 8t-39.5 24l-28 23q-11 7 -19.5 14t-22.5 7q-8 0 -12.5 -4.5t-6.5 -11t-3 -13.5t-1 -12q0 -7 -4 -9t-7 -2h-35z" />
<glyph unicode="&#xd6;" horiz-adv-x="644" d="M322 653q-59 0 -93.5 -30t-52 -74t-22.5 -95.5t-5 -94.5t5 -94.5t22.5 -95.5t52 -74t93.5 -30t93.5 30t52 74t22.5 95.5t5 94.5t-5 94.5t-22.5 95.5t-52 74t-93.5 30zM322 729q77 0 128 -31t81.5 -83t43 -118.5t12.5 -137.5t-12.5 -137.5t-43 -118.5t-81.5 -83t-128 -31 t-128 31t-81.5 83t-43 118.5t-12.5 137.5t12.5 137.5t43 118.5t81.5 83t128 31zM426 781q-25 0 -40.5 17t-15.5 40q0 21 15 38t41 17q24 0 40.5 -15.5t16.5 -39.5q0 -22 -14.5 -39.5t-42.5 -17.5zM219 781q-25 0 -40.5 17t-15.5 40q0 21 15 38t41 17q24 0 40.5 -15.5 t16.5 -39.5q0 -22 -14.5 -39.5t-42.5 -17.5z" />
<glyph unicode="&#xd7;" d="M110 202q-5 5 -5 11q0 5 5 10l104 105l-106 104q-5 5 -5 10q0 6 5 11l36 36q5 5 11 5q5 0 10 -5l107 -104l105 103q6 6 11 6q6 0 11 -5l31 -31q5 -7 5 -11q0 -5 -5 -10l-106 -104l111 -104q5 -5 5 -11t-5 -11l-36 -36q-5 -5 -11 -5q-5 0 -10 5l-111 104l-105 -104 q-5 -5 -10 -5q-6 0 -11 5z" />
<glyph unicode="&#xd8;" horiz-adv-x="644" d="M158 46q-29 25 -48 60t-31 75.5t-17 85.5t-5 92q0 71 12.5 137.5t43 118.5t81.5 83t128 31q35 0 63.5 -6.5t53.5 -18.5l29 68q8 17 29 17h32q18 0 18 -12q0 -5 -2 -11t-4 -10l-42 -98q49 -53 68.5 -132t19.5 -167q0 -71 -12.5 -137.5t-43 -118.5t-81.5 -83t-128 -31 q-29 0 -54 5t-47 13l-30 -71q-5 -13 -11 -16.5t-20 -3.5h-30q-18 0 -18 12q0 5 1 9t3 9zM407 629q-17 11 -38 17.5t-47 6.5q-59 0 -93.5 -30t-52 -74t-22.5 -95.5t-5 -94.5q0 -26 1.5 -56t6.5 -60t14 -58.5t24 -52.5zM252 80q30 -15 70 -15q59 0 93.5 30t52 74t22.5 95.5 t5 94.5q0 24 -1.5 50.5t-5 53.5t-10.5 53.5t-18 49.5z" />
<glyph unicode="&#xd9;" horiz-adv-x="623" d="M80 706q0 15 16 15h54q16 0 16 -15v-488q0 -81 42 -118t110 -37q73 0 107.5 40t34.5 106v497q0 15 16 15h51q16 0 16 -15v-488q0 -52 -13.5 -94.5t-41.5 -72.5t-71.5 -46t-103.5 -16q-109 0 -171 55.5t-62 167.5v494zM229 879q-2 4 -2.5 7t-0.5 5q0 8 5.5 10.5t10.5 2.5 h53q12 0 20 -15l44 -89q4 -10 4 -14q0 -12 -17 -12h-46q-9 0 -13.5 4t-9.5 12z" />
<glyph unicode="&#xda;" horiz-adv-x="623" d="M80 706q0 15 16 15h54q16 0 16 -15v-488q0 -81 42 -118t110 -37q73 0 107.5 40t34.5 106v497q0 15 16 15h51q16 0 16 -15v-488q0 -52 -13.5 -94.5t-41.5 -72.5t-71.5 -46t-103.5 -16q-109 0 -171 55.5t-62 167.5v494zM291 774q-17 0 -17 12q0 4 4 14l44 89q7 15 20 15h53 q5 0 10.5 -2.5t5.5 -10.5q0 -2 -0.5 -5t-2.5 -7l-48 -89q-5 -8 -9.5 -12t-13.5 -4h-46z" />
<glyph unicode="&#xdb;" horiz-adv-x="623" d="M80 706q0 15 16 15h54q16 0 16 -15v-488q0 -81 42 -118t110 -37q73 0 107.5 40t34.5 106v497q0 15 16 15h51q16 0 16 -15v-488q0 -52 -13.5 -94.5t-41.5 -72.5t-71.5 -46t-103.5 -16q-109 0 -171 55.5t-62 167.5v494zM255 891q5 5 10.5 9t13.5 4h67q8 0 12 -4l9 -9 l77 -93q3 -4 6 -7.5t3 -7.5q0 -9 -15 -9h-49q-8 0 -13 4t-10 9l-55 66l-54 -66q-5 -6 -9 -9.5t-12 -3.5h-54q-13 0 -13 9q0 6 7 15z" />
<glyph unicode="&#xdc;" horiz-adv-x="623" d="M80 706q0 15 16 15h54q16 0 16 -15v-488q0 -81 42 -118t110 -37q73 0 107.5 40t34.5 106v497q0 15 16 15h51q16 0 16 -15v-488q0 -52 -13.5 -94.5t-41.5 -72.5t-71.5 -46t-103.5 -16q-109 0 -171 55.5t-62 167.5v494zM415 781q-25 0 -40.5 17t-15.5 40q0 21 15 38t41 17 q24 0 40.5 -15.5t16.5 -39.5q0 -22 -14.5 -39.5t-42.5 -17.5zM208 781q-25 0 -40.5 17t-15.5 40q0 21 15 38t41 17q24 0 40.5 -15.5t16.5 -39.5q0 -22 -14.5 -39.5t-42.5 -17.5z" />
<glyph unicode="&#xdd;" horiz-adv-x="517" d="M212 294l-196 397q-6 12 -6 17q0 13 17 13h52q18 0 26 -17l155 -324l156 324q8 17 26 17h48q17 0 17 -13q0 -5 -6 -17l-203 -397v-279q0 -15 -16 -15h-54q-16 0 -16 15v279zM239 774q-17 0 -17 12q0 4 4 14l44 89q7 15 20 15h53q5 0 10.5 -2.5t5.5 -10.5q0 -2 -0.5 -5 t-2.5 -7l-48 -89q-5 -8 -9.5 -12t-13.5 -4h-46z" />
<glyph unicode="&#xde;" horiz-adv-x="536" d="M106 0q-16 0 -16 15v691q0 15 16 15h53q16 0 16 -15v-93h89q120 0 183.5 -61t63.5 -167q0 -54 -17.5 -96.5t-50.5 -72t-80 -45t-106 -15.5h-82v-141q0 -15 -16 -15h-53zM175 231h75q88 0 130.5 40t42.5 111q0 44 -13 74t-36 48t-55 26t-69 8h-75v-307z" />
<glyph unicode="&#xdf;" horiz-adv-x="525" d="M87 0q-15 0 -15 15v503q0 109 46.5 160t140.5 51q48 0 81.5 -16t55 -42t31.5 -58t10 -64q0 -48 -22 -91.5t-64 -68.5q66 -20 102.5 -67t36.5 -125q0 -47 -13.5 -85t-38 -64.5t-58.5 -40.5t-74 -14q-29 0 -45 2t-34 7q-14 3 -14 23v38q0 13 12 13q5 0 12.5 -2.5t15.5 -4.5 q10 -2 19.5 -3.5t20.5 -1.5q58 0 82.5 34t24.5 98q0 55 -24.5 93t-72.5 49q-23 5 -39 6t-25 1q-15 0 -15 15v37q0 6 3.5 10.5t10.5 4.5q12 0 21.5 0.5t24.5 5.5q19 6 32 18t20.5 29t10.5 36.5t3 40.5q0 51 -25 81.5t-73 30.5t-72.5 -32t-24.5 -111v-496q0 -15 -15 -15h-53z " />
<glyph unicode="&#xe0;" horiz-adv-x="466" d="M318 246h-83q-60 0 -85.5 -25t-25.5 -71q0 -47 24 -70.5t68 -23.5q30 0 54.5 9.5t47.5 25.5v155zM318 37q-23 -18 -55 -33t-70 -15q-69 0 -111 38.5t-42 116.5q0 45 14.5 77t41 52.5t63.5 29.5t81 9h78v34q0 50 -28 68.5t-68 18.5q-26 0 -48 -3.5t-38 -8.5q-11 -2 -17 -4 t-11 -2q-10 0 -13 14l-5 24l-2 11q-1 5 -1 10q0 11 16 15q5 1 18 4t30.5 6t39 5t42.5 2q77 0 121 -34.5t44 -121.5v-335q0 -15 -15 -15h-50q-15 0 -15 15v22zM148 712q-3 7 -3 12q0 8 5.5 10.5t10.5 2.5h47q13 0 19 -15l53 -130q4 -10 4 -14q0 -12 -17 -12h-42q-9 0 -12.5 4 t-7.5 12z" />
<glyph unicode="&#xe1;" horiz-adv-x="466" d="M318 246h-83q-60 0 -85.5 -25t-25.5 -71q0 -47 24 -70.5t68 -23.5q30 0 54.5 9.5t47.5 25.5v155zM318 37q-23 -18 -55 -33t-70 -15q-69 0 -111 38.5t-42 116.5q0 45 14.5 77t41 52.5t63.5 29.5t81 9h78v34q0 50 -28 68.5t-68 18.5q-26 0 -48 -3.5t-38 -8.5q-11 -2 -17 -4 t-11 -2q-10 0 -13 14l-5 24l-2 11q-1 5 -1 10q0 11 16 15q5 1 18 4t30.5 6t39 5t42.5 2q77 0 121 -34.5t44 -121.5v-335q0 -15 -15 -15h-50q-15 0 -15 15v22zM211 566q-17 0 -17 12q0 4 4 14l53 130q6 15 19 15h47q5 0 10.5 -2.5t5.5 -10.5q0 -5 -3 -12l-57 -130 q-4 -8 -7.5 -12t-12.5 -4h-42z" />
<glyph unicode="&#xe2;" horiz-adv-x="466" d="M318 246h-83q-60 0 -85.5 -25t-25.5 -71q0 -47 24 -70.5t68 -23.5q30 0 54.5 9.5t47.5 25.5v155zM318 37q-23 -18 -55 -33t-70 -15q-69 0 -111 38.5t-42 116.5q0 45 14.5 77t41 52.5t63.5 29.5t81 9h78v34q0 50 -28 68.5t-68 18.5q-26 0 -48 -3.5t-38 -8.5q-11 -2 -17 -4 t-11 -2q-10 0 -13 14l-5 24l-2 11q-1 5 -1 10q0 11 16 15q5 1 18 4t30.5 6t39 5t42.5 2q77 0 121 -34.5t44 -121.5v-335q0 -15 -15 -15h-50q-15 0 -15 15v22zM197 724q4 6 7.5 9.5t11.5 3.5h41q8 0 11 -3.5t7 -9.5l83 -134q2 -2 4 -6.5t2 -8.5q0 -9 -15 -9h-39q-15 0 -23 13 l-51 82l-50 -82q-4 -6 -8 -9.5t-12 -3.5h-43q-14 0 -14 9q0 4 2 8.5t4 6.5z" />
<glyph unicode="&#xe3;" horiz-adv-x="466" d="M318 246h-83q-60 0 -85.5 -25t-25.5 -71q0 -47 24 -70.5t68 -23.5q30 0 54.5 9.5t47.5 25.5v155zM318 37q-23 -18 -55 -33t-70 -15q-69 0 -111 38.5t-42 116.5q0 45 14.5 77t41 52.5t63.5 29.5t81 9h78v34q0 50 -28 68.5t-68 18.5q-26 0 -48 -3.5t-38 -8.5q-11 -2 -17 -4 t-11 -2q-10 0 -13 14l-5 24l-2 11q-1 5 -1 10q0 11 16 15q5 1 18 4t30.5 6t39 5t42.5 2q77 0 121 -34.5t44 -121.5v-335q0 -15 -15 -15h-50q-15 0 -15 15v22zM96 594q-6 0 -10 2.5t-4 10.5q0 17 4.5 36.5t12.5 35.5q18 32 60 32q24 0 43 -8t40 -25l27 -23q8 -7 17.5 -12.5 t21.5 -5.5q15 0 19.5 13.5t4.5 26.5q0 8 4 10.5t10 2.5h35q3 0 7 -2t4 -9q0 -48 -17 -79q-18 -30 -55 -30q-26 0 -45.5 8t-39.5 24l-28 23q-11 7 -19.5 14t-22.5 7q-8 0 -12.5 -4.5t-6.5 -11t-3 -13.5t-1 -12q0 -7 -4 -9t-7 -2h-35z" />
<glyph unicode="&#xe4;" horiz-adv-x="466" d="M318 246h-83q-60 0 -85.5 -25t-25.5 -71q0 -47 24 -70.5t68 -23.5q30 0 54.5 9.5t47.5 25.5v155zM318 37q-23 -18 -55 -33t-70 -15q-69 0 -111 38.5t-42 116.5q0 45 14.5 77t41 52.5t63.5 29.5t81 9h78v34q0 50 -28 68.5t-68 18.5q-26 0 -48 -3.5t-38 -8.5q-11 -2 -17 -4 t-11 -2q-10 0 -13 14l-5 24l-2 11q-1 5 -1 10q0 11 16 15q5 1 18 4t30.5 6t39 5t42.5 2q77 0 121 -34.5t44 -121.5v-335q0 -15 -15 -15h-50q-15 0 -15 15v22zM338 566q-25 0 -40.5 17t-15.5 40q0 21 15 38t41 17q24 0 40.5 -15.5t16.5 -39.5q0 -22 -14.5 -39.5t-42.5 -17.5z M131 566q-25 0 -40.5 17t-15.5 40q0 21 15 38t41 17q24 0 40.5 -15.5t16.5 -39.5q0 -22 -14.5 -39.5t-42.5 -17.5z" />
<glyph unicode="&#xe5;" horiz-adv-x="466" d="M318 246h-83q-60 0 -85.5 -25t-25.5 -71q0 -47 24 -70.5t68 -23.5q30 0 54.5 9.5t47.5 25.5v155zM318 37q-23 -18 -55 -33t-70 -15q-69 0 -111 38.5t-42 116.5q0 45 14.5 77t41 52.5t63.5 29.5t81 9h78v34q0 50 -28 68.5t-68 18.5q-26 0 -48 -3.5t-38 -8.5q-11 -2 -17 -4 t-11 -2q-10 0 -13 14l-5 24l-2 11q-1 5 -1 10q0 11 16 15q5 1 18 4t30.5 6t39 5t42.5 2q77 0 121 -34.5t44 -121.5v-335q0 -15 -15 -15h-50q-15 0 -15 15v22zM124 676q0 22 8 43t22.5 36.5t35.5 25t47 9.5q25 0 45.5 -9t35.5 -24.5t23 -36.5t8 -44q0 -22 -8 -42t-22.5 -35 t-35.5 -24t-46 -9q-51 0 -82 31t-31 79zM237 620q23 0 38.5 16.5t15.5 39.5q0 22 -13 40.5t-41 18.5q-25 0 -40 -17t-15 -42q0 -23 14.5 -39.5t40.5 -16.5z" />
<glyph unicode="&#xe6;" horiz-adv-x="741" d="M315 296v50q0 50 -28 68.5t-68 18.5q-26 0 -48 -3.5t-38 -8.5q-11 -2 -17 -4t-11 -2q-10 0 -13 14l-5 24l-2 11q-1 5 -1 10q0 11 16 15q5 1 18 4t30.5 6t39 5t42.5 2q53 0 87 -16.5t54 -53.5q33 39 70.5 54.5t77.5 15.5q48 0 82 -17.5t55.5 -48.5t32 -72t10.5 -88v-28 q0 -9 -5 -14t-13 -5h-286q0 -32 8 -62.5t25.5 -54.5t46 -38.5t69.5 -14.5q35 0 62 7.5t40 12.5q9 3 14 5t10 2q13 0 13 -12v-42q0 -11 -3.5 -15.5t-10.5 -7.5q-27 -11 -63 -17.5t-77 -6.5q-99 0 -155 59q-36 -23 -81.5 -41t-102.5 -18q-69 0 -111 37.5t-42 115.5 q0 43 14.5 72.5t39.5 47.5t58.5 26t72.5 8h93zM226 233q-58 0 -81.5 -21.5t-23.5 -63.5t22.5 -66t66.5 -24q43 0 74.5 13t54.5 28q-14 30 -21.5 60t-7.5 74h-84zM617 296q0 25 -4.5 50t-16 45t-31 32.5t-50.5 12.5q-29 0 -51 -11.5t-37 -31t-23.5 -45t-9.5 -52.5h223z" />
<glyph unicode="&#xe7;" horiz-adv-x="422" d="M389 28q0 -11 -3.5 -15.5t-10.5 -7.5q-12 -5 -41.5 -10.5t-62.5 -5.5q-66 0 -112 23.5t-72 63.5q-23 34 -32.5 78t-9.5 96q0 49 13 95t41 82t71 57.5t103 21.5q42 0 67.5 -6t42.5 -12q16 -5 16 -16q0 -4 -1 -10l-2 -10l-5 -24q-3 -14 -13 -14q-5 0 -10.5 1.5t-11.5 3.5 l-28 7q-20 5 -48 5q-42 0 -70.5 -14.5t-46 -39t-25 -58t-7.5 -72.5q0 -36 7 -69.5t23.5 -59t45 -40.5t72.5 -15q32 0 48.5 5t24.5 7q9 3 14 5t10 2q13 0 13 -12v-42zM172 -133q3 9 8 9t16 -4.5t29 -4.5t25.5 8t7.5 21q0 16 -10.5 23.5t-24.5 12.5q-7 3 -7 8q0 3 2 11l11 57 l51 -2l-10 -50q58 -16 58 -68q0 -14 -4.5 -27t-15 -24t-28 -17.5t-42.5 -6.5q-23 0 -40.5 4.5t-22.5 6.5q-10 3 -10 9q0 3 2 11z" />
<glyph unicode="&#xe8;" horiz-adv-x="476" d="M418 36q0 -11 -3.5 -15.5t-10.5 -7.5q-27 -11 -63 -17.5t-77 -6.5q-107 0 -163 67.5t-56 191.5q0 72 19 121.5t48.5 80t66 43.5t71.5 13q51 0 86 -19.5t57 -52t31.5 -75t9.5 -89.5v-28q0 -9 -5 -14t-13 -5h-286q0 -32 8 -61t25.5 -51t46 -35t69.5 -13q35 0 62 7.5 t40 12.5q9 3 14 5t10 2q13 0 13 -12v-42zM352 286q0 29 -4 56t-16 48t-33.5 33.5t-55.5 12.5q-26 0 -46.5 -11.5t-35 -31.5t-23 -47.5t-9.5 -59.5h223zM159 712q-3 7 -3 12q0 8 5.5 10.5t10.5 2.5h47q13 0 19 -15l53 -130q4 -10 4 -14q0 -12 -17 -12h-42q-9 0 -12.5 4 t-7.5 12z" />
<glyph unicode="&#xe9;" horiz-adv-x="476" d="M418 36q0 -11 -3.5 -15.5t-10.5 -7.5q-27 -11 -63 -17.5t-77 -6.5q-107 0 -163 67.5t-56 191.5q0 72 19 121.5t48.5 80t66 43.5t71.5 13q51 0 86 -19.5t57 -52t31.5 -75t9.5 -89.5v-28q0 -9 -5 -14t-13 -5h-286q0 -32 8 -61t25.5 -51t46 -35t69.5 -13q35 0 62 7.5 t40 12.5q9 3 14 5t10 2q13 0 13 -12v-42zM352 286q0 29 -4 56t-16 48t-33.5 33.5t-55.5 12.5q-26 0 -46.5 -11.5t-35 -31.5t-23 -47.5t-9.5 -59.5h223zM229 566q-17 0 -17 12q0 4 4 14l53 130q6 15 19 15h47q5 0 10.5 -2.5t5.5 -10.5q0 -5 -3 -12l-57 -130q-4 -8 -7.5 -12 t-12.5 -4h-42z" />
<glyph unicode="&#xea;" horiz-adv-x="476" d="M418 36q0 -11 -3.5 -15.5t-10.5 -7.5q-27 -11 -63 -17.5t-77 -6.5q-107 0 -163 67.5t-56 191.5q0 72 19 121.5t48.5 80t66 43.5t71.5 13q51 0 86 -19.5t57 -52t31.5 -75t9.5 -89.5v-28q0 -9 -5 -14t-13 -5h-286q0 -32 8 -61t25.5 -51t46 -35t69.5 -13q35 0 62 7.5 t40 12.5q9 3 14 5t10 2q13 0 13 -12v-42zM352 286q0 29 -4 56t-16 48t-33.5 33.5t-55.5 12.5q-26 0 -46.5 -11.5t-35 -31.5t-23 -47.5t-9.5 -59.5h223zM211 724q4 6 7.5 9.5t11.5 3.5h41q8 0 11 -3.5t7 -9.5l83 -134q2 -2 4 -6.5t2 -8.5q0 -9 -15 -9h-39q-15 0 -23 13 l-51 82l-50 -82q-4 -6 -8 -9.5t-12 -3.5h-43q-14 0 -14 9q0 4 2 8.5t4 6.5z" />
<glyph unicode="&#xeb;" horiz-adv-x="476" d="M418 36q0 -11 -3.5 -15.5t-10.5 -7.5q-27 -11 -63 -17.5t-77 -6.5q-107 0 -163 67.5t-56 191.5q0 72 19 121.5t48.5 80t66 43.5t71.5 13q51 0 86 -19.5t57 -52t31.5 -75t9.5 -89.5v-28q0 -9 -5 -14t-13 -5h-286q0 -32 8 -61t25.5 -51t46 -35t69.5 -13q35 0 62 7.5 t40 12.5q9 3 14 5t10 2q13 0 13 -12v-42zM352 286q0 29 -4 56t-16 48t-33.5 33.5t-55.5 12.5q-26 0 -46.5 -11.5t-35 -31.5t-23 -47.5t-9.5 -59.5h223zM354 566q-25 0 -40.5 17t-15.5 40q0 21 15 38t41 17q24 0 40.5 -15.5t16.5 -39.5q0 -22 -14.5 -39.5t-42.5 -17.5z M147 566q-25 0 -40.5 17t-15.5 40q0 21 15 38t41 17q24 0 40.5 -15.5t16.5 -39.5q0 -22 -14.5 -39.5t-42.5 -17.5z" />
<glyph unicode="&#xec;" horiz-adv-x="227" d="M72 479q0 15 15 15h53q15 0 15 -15v-464q0 -15 -15 -15h-53q-15 0 -15 15v464zM15 712q-3 7 -3 12q0 8 5.5 10.5t10.5 2.5h47q13 0 19 -15l53 -130q4 -10 4 -14q0 -12 -17 -12h-42q-9 0 -12.5 4t-7.5 12z" />
<glyph unicode="&#xed;" horiz-adv-x="227" d="M72 479q0 15 15 15h53q15 0 15 -15v-464q0 -15 -15 -15h-53q-15 0 -15 15v464zM93 566q-17 0 -17 12q0 4 4 14l53 130q6 15 19 15h47q5 0 10.5 -2.5t5.5 -10.5q0 -5 -3 -12l-57 -130q-4 -8 -7.5 -12t-12.5 -4h-42z" />
<glyph unicode="&#xee;" horiz-adv-x="227" d="M72 479q0 15 15 15h53q15 0 15 -15v-464q0 -15 -15 -15h-53q-15 0 -15 15v464zM74 724q4 6 7.5 9.5t11.5 3.5h41q8 0 11 -3.5t7 -9.5l83 -134q2 -2 4 -6.5t2 -8.5q0 -9 -15 -9h-39q-15 0 -23 13l-51 82l-50 -82q-4 -6 -8 -9.5t-12 -3.5h-43q-14 0 -14 9q0 4 2 8.5t4 6.5z " />
<glyph unicode="&#xef;" horiz-adv-x="227" d="M72 479q0 15 15 15h53q15 0 15 -15v-464q0 -15 -15 -15h-53q-15 0 -15 15v464zM219 566q-25 0 -40.5 17t-15.5 40q0 21 15 38t41 17q24 0 40.5 -15.5t16.5 -39.5q0 -22 -14.5 -39.5t-42.5 -17.5zM12 566q-25 0 -40.5 17t-15.5 40q0 21 15 38t41 17q24 0 40.5 -15.5 t16.5 -39.5q0 -22 -14.5 -39.5t-42.5 -17.5z" />
<glyph unicode="&#xf0;" horiz-adv-x="548" d="M174 482q-6 -3 -10 -3q-7 0 -7 14v38q0 9 4 13t10 7l87 43q-32 25 -65.5 38.5t-83.5 21.5q-16 1 -16 16v43q0 16 15 16t47 -7q53 -12 97.5 -33.5t79.5 -57.5l126 62q6 3 9 3q7 0 7 -13v-41q0 -11 -14 -18l-84 -42q26 -36 44 -76t29 -79t15.5 -76t4.5 -67q0 -48 -9 -100 t-32.5 -95.5t-64.5 -71.5t-105 -28q-91 0 -144.5 55t-53.5 161q0 48 13 87.5t37 67.5t58 43.5t76 15.5q38 0 75.5 -16.5t60.5 -40.5q-9 48 -26.5 95.5t-49.5 89.5zM382 292q-22 20 -51.5 37t-74.5 17q-54 0 -83.5 -36t-29.5 -108q0 -29 6.5 -54.5t21 -45t37.5 -31t56 -11.5 q45 0 69.5 26t36 62.5t12.5 76.5q1 17 1 32q0 20 -1 35z" />
<glyph unicode="&#xf1;" horiz-adv-x="520" d="M72 479q0 15 15 15h53q15 0 15 -15v-33q26 23 61.5 41.5t86.5 18.5q29 0 55 -8t46 -26t32 -46t12 -67v-344q0 -15 -15 -15h-53q-15 0 -15 15v319q0 56 -24.5 77.5t-66.5 21.5q-30 0 -58.5 -13.5t-60.5 -40.5v-364q0 -15 -15 -15h-53q-15 0 -15 15v464zM119 594 q-6 0 -10 2.5t-4 10.5q0 17 4.5 36.5t12.5 35.5q18 32 60 32q24 0 43 -8t40 -25l27 -23q8 -7 17.5 -12.5t21.5 -5.5q15 0 19.5 13.5t4.5 26.5q0 8 4 10.5t10 2.5h35q3 0 7 -2t4 -9q0 -48 -17 -79q-18 -30 -55 -30q-26 0 -45.5 8t-39.5 24l-28 23q-11 7 -19.5 14t-22.5 7 q-8 0 -12.5 -4.5t-6.5 -11t-3 -13.5t-1 -12q0 -7 -4 -9t-7 -2h-35z" />
<glyph unicode="&#xf2;" horiz-adv-x="516" d="M258 506q57 0 97.5 -21t66 -56t37.5 -82t12 -99q0 -53 -12 -100t-37.5 -82t-66 -56t-97.5 -21t-97.5 21t-66 56t-37.5 82t-12 100q0 52 12 99t37.5 82.5t66 56t97.5 20.5zM258 434q-37 0 -61.5 -15t-39 -40.5t-20.5 -59.5t-6 -71q0 -38 6 -71.5t20.5 -59.5t39 -41 t61.5 -15t61.5 15t39 41t20.5 59.5t6 71.5q0 37 -6 71t-20.5 59.5t-39 40.5t-61.5 15zM164 712q-3 7 -3 12q0 8 5.5 10.5t10.5 2.5h47q13 0 19 -15l53 -130q4 -10 4 -14q0 -12 -17 -12h-42q-9 0 -12.5 4t-7.5 12z" />
<glyph unicode="&#xf3;" horiz-adv-x="516" d="M258 506q57 0 97.5 -21t66 -56t37.5 -82t12 -99q0 -53 -12 -100t-37.5 -82t-66 -56t-97.5 -21t-97.5 21t-66 56t-37.5 82t-12 100q0 52 12 99t37.5 82.5t66 56t97.5 20.5zM258 434q-37 0 -61.5 -15t-39 -40.5t-20.5 -59.5t-6 -71q0 -38 6 -71.5t20.5 -59.5t39 -41 t61.5 -15t61.5 15t39 41t20.5 59.5t6 71.5q0 37 -6 71t-20.5 59.5t-39 40.5t-61.5 15zM240 566q-17 0 -17 12q0 4 4 14l53 130q6 15 19 15h47q5 0 10.5 -2.5t5.5 -10.5q0 -5 -3 -12l-57 -130q-4 -8 -7.5 -12t-12.5 -4h-42z" />
<glyph unicode="&#xf4;" horiz-adv-x="516" d="M258 506q57 0 97.5 -21t66 -56t37.5 -82t12 -99q0 -53 -12 -100t-37.5 -82t-66 -56t-97.5 -21t-97.5 21t-66 56t-37.5 82t-12 100q0 52 12 99t37.5 82.5t66 56t97.5 20.5zM258 434q-37 0 -61.5 -15t-39 -40.5t-20.5 -59.5t-6 -71q0 -38 6 -71.5t20.5 -59.5t39 -41 t61.5 -15t61.5 15t39 41t20.5 59.5t6 71.5q0 37 -6 71t-20.5 59.5t-39 40.5t-61.5 15zM218 724q4 6 7.5 9.5t11.5 3.5h41q8 0 11 -3.5t7 -9.5l83 -134q2 -2 4 -6.5t2 -8.5q0 -9 -15 -9h-39q-15 0 -23 13l-51 82l-50 -82q-4 -6 -8 -9.5t-12 -3.5h-43q-14 0 -14 9q0 4 2 8.5 t4 6.5z" />
<glyph unicode="&#xf5;" horiz-adv-x="516" d="M258 506q57 0 97.5 -21t66 -56t37.5 -82t12 -99q0 -53 -12 -100t-37.5 -82t-66 -56t-97.5 -21t-97.5 21t-66 56t-37.5 82t-12 100q0 52 12 99t37.5 82.5t66 56t97.5 20.5zM258 434q-37 0 -61.5 -15t-39 -40.5t-20.5 -59.5t-6 -71q0 -38 6 -71.5t20.5 -59.5t39 -41 t61.5 -15t61.5 15t39 41t20.5 59.5t6 71.5q0 37 -6 71t-20.5 59.5t-39 40.5t-61.5 15zM117 594q-6 0 -10 2.5t-4 10.5q0 17 4.5 36.5t12.5 35.5q18 32 60 32q24 0 43 -8t40 -25l27 -23q8 -7 17.5 -12.5t21.5 -5.5q15 0 19.5 13.5t4.5 26.5q0 8 4 10.5t10 2.5h35q3 0 7 -2 t4 -9q0 -48 -17 -79q-18 -30 -55 -30q-26 0 -45.5 8t-39.5 24l-28 23q-11 7 -19.5 14t-22.5 7q-8 0 -12.5 -4.5t-6.5 -11t-3 -13.5t-1 -12q0 -7 -4 -9t-7 -2h-35z" />
<glyph unicode="&#xf6;" horiz-adv-x="516" d="M258 506q57 0 97.5 -21t66 -56t37.5 -82t12 -99q0 -53 -12 -100t-37.5 -82t-66 -56t-97.5 -21t-97.5 21t-66 56t-37.5 82t-12 100q0 52 12 99t37.5 82.5t66 56t97.5 20.5zM258 434q-37 0 -61.5 -15t-39 -40.5t-20.5 -59.5t-6 -71q0 -38 6 -71.5t20.5 -59.5t39 -41 t61.5 -15t61.5 15t39 41t20.5 59.5t6 71.5q0 37 -6 71t-20.5 59.5t-39 40.5t-61.5 15zM370 566q-25 0 -40.5 17t-15.5 40q0 21 15 38t41 17q24 0 40.5 -15.5t16.5 -39.5q0 -22 -14.5 -39.5t-42.5 -17.5zM163 566q-25 0 -40.5 17t-15.5 40q0 21 15 38t41 17q24 0 40.5 -15.5 t16.5 -39.5q0 -22 -14.5 -39.5t-42.5 -17.5z" />
<glyph unicode="&#xf7;" d="M275 127q-24 0 -41.5 16t-17.5 43q0 26 17 42.5t42 16.5q24 0 41.5 -16t17.5 -43q0 -25 -17.5 -42t-41.5 -17zM275 415q-24 0 -41.5 16t-17.5 43q0 26 17 42.5t42 16.5q24 0 41.5 -16t17.5 -43q0 -25 -17.5 -42t-41.5 -17zM92 354q0 15 15 15h329q16 0 16 -15v-44 q0 -15 -15 -15h-330q-15 0 -15 15v44z" />
<glyph unicode="&#xf8;" horiz-adv-x="516" d="M120 37q-39 36 -57 91t-18 120q0 52 12 99t37.5 82.5t66 56t97.5 20.5q38 0 73 -11l31 67q8 17 29 17h27q18 0 18 -12q0 -5 -2 -11l-4 -10l-39 -85q42 -35 61 -91t19 -122q0 -53 -12 -100t-37.5 -82t-66 -56t-97.5 -21q-43 0 -80 13l-34 -75q-6 -13 -11.5 -16.5 t-19.5 -3.5h-27q-18 0 -18 12q0 5 2 9t4 9zM210 69q21 -8 48 -8q37 0 61.5 15t39 41t20.5 59.5t6 71.5q0 39 -6.5 74t-23.5 61zM300 427q-10 3 -20.5 5t-21.5 2q-37 0 -61.5 -15t-39 -40.5t-20.5 -59.5t-6 -71q0 -38 6 -71t20 -59z" />
<glyph unicode="&#xf9;" horiz-adv-x="520" d="M72 480q0 15 15 15h53q15 0 15 -15v-319q0 -56 24.5 -77.5t66.5 -21.5q30 0 58.5 13.5t60.5 40.5v364q0 15 15 15h53q15 0 15 -15v-465q0 -15 -15 -15h-53q-15 0 -15 15v34q-26 -23 -61.5 -41.5t-86.5 -18.5q-29 0 -55 8t-46 26t-32 46t-12 67v344zM172 712q-3 7 -3 12 q0 8 5.5 10.5t10.5 2.5h47q13 0 19 -15l53 -130q4 -10 4 -14q0 -12 -17 -12h-42q-9 0 -12.5 4t-7.5 12z" />
<glyph unicode="&#xfa;" horiz-adv-x="520" d="M72 480q0 15 15 15h53q15 0 15 -15v-319q0 -56 24.5 -77.5t66.5 -21.5q30 0 58.5 13.5t60.5 40.5v364q0 15 15 15h53q15 0 15 -15v-465q0 -15 -15 -15h-53q-15 0 -15 15v34q-26 -23 -61.5 -41.5t-86.5 -18.5q-29 0 -55 8t-46 26t-32 46t-12 67v344zM241 566q-17 0 -17 12 q0 4 4 14l53 130q6 15 19 15h47q5 0 10.5 -2.5t5.5 -10.5q0 -5 -3 -12l-57 -130q-4 -8 -7.5 -12t-12.5 -4h-42z" />
<glyph unicode="&#xfb;" horiz-adv-x="520" d="M72 480q0 15 15 15h53q15 0 15 -15v-319q0 -56 24.5 -77.5t66.5 -21.5q30 0 58.5 13.5t60.5 40.5v364q0 15 15 15h53q15 0 15 -15v-465q0 -15 -15 -15h-53q-15 0 -15 15v34q-26 -23 -61.5 -41.5t-86.5 -18.5q-29 0 -55 8t-46 26t-32 46t-12 67v344zM220 724q4 6 7.5 9.5 t11.5 3.5h41q8 0 11 -3.5t7 -9.5l83 -134q2 -2 4 -6.5t2 -8.5q0 -9 -15 -9h-39q-15 0 -23 13l-51 82l-50 -82q-4 -6 -8 -9.5t-12 -3.5h-43q-14 0 -14 9q0 4 2 8.5t4 6.5z" />
<glyph unicode="&#xfc;" horiz-adv-x="520" d="M72 480q0 15 15 15h53q15 0 15 -15v-319q0 -56 24.5 -77.5t66.5 -21.5q30 0 58.5 13.5t60.5 40.5v364q0 15 15 15h53q15 0 15 -15v-465q0 -15 -15 -15h-53q-15 0 -15 15v34q-26 -23 -61.5 -41.5t-86.5 -18.5q-29 0 -55 8t-46 26t-32 46t-12 67v344zM363 566 q-25 0 -40.5 17t-15.5 40q0 21 15 38t41 17q24 0 40.5 -15.5t16.5 -39.5q0 -22 -14.5 -39.5t-42.5 -17.5zM156 566q-25 0 -40.5 17t-15.5 40q0 21 15 38t41 17q24 0 40.5 -15.5t16.5 -39.5q0 -22 -14.5 -39.5t-42.5 -17.5z" />
<glyph unicode="&#xfd;" horiz-adv-x="450" d="M7 -139q1 9 5.5 12t9.5 3q6 0 13 -1t28 -1q35 0 60 17t42 59l20 51l-167 470q-2 6 -2 10q0 13 17 13h46q10 0 16 -3t10 -14l122 -369l123 368q4 11 10 14.5t16 3.5h42q17 0 17 -13q0 -4 -2 -10l-179 -500q-14 -38 -28.5 -69t-36 -53t-52 -34t-76.5 -12q-19 0 -28.5 0.5 t-16.5 2.5q-14 3 -14 14v6q0 3 1 8zM213 566q-17 0 -17 12q0 4 4 14l53 130q6 15 19 15h47q5 0 10.5 -2.5t5.5 -10.5q0 -5 -3 -12l-57 -130q-4 -8 -7.5 -12t-12.5 -4h-42z" />
<glyph unicode="&#xfe;" horiz-adv-x="525" d="M155 103q20 -18 48 -30t61 -12q39 0 64 16t39.5 43t20 61.5t5.5 71.5q0 83 -28.5 132t-92.5 49q-32 0 -61.5 -13t-55.5 -33v-285zM72 739q0 15 15 15h53q15 0 15 -15v-288q28 23 61.5 39t77.5 16q94 0 140 -66.5t46 -181.5q0 -125 -53.5 -195.5t-153.5 -70.5 q-39 0 -69.5 12.5t-48.5 28.5v-205q0 -15 -15 -15h-53q-15 0 -15 15v911z" />
<glyph unicode="&#xff;" horiz-adv-x="450" d="M7 -139q1 9 5.5 12t9.5 3q6 0 13 -1t28 -1q35 0 60 17t42 59l20 51l-167 470q-2 6 -2 10q0 13 17 13h46q10 0 16 -3t10 -14l122 -369l123 368q4 11 10 14.5t16 3.5h42q17 0 17 -13q0 -4 -2 -10l-179 -500q-14 -38 -28.5 -69t-36 -53t-52 -34t-76.5 -12q-19 0 -28.5 0.5 t-16.5 2.5q-14 3 -14 14v6q0 3 1 8zM338 566q-25 0 -40.5 17t-15.5 40q0 21 15 38t41 17q24 0 40.5 -15.5t16.5 -39.5q0 -22 -14.5 -39.5t-42.5 -17.5zM131 566q-25 0 -40.5 17t-15.5 40q0 21 15 38t41 17q24 0 40.5 -15.5t16.5 -39.5q0 -22 -14.5 -39.5t-42.5 -17.5z" />
<glyph unicode="&#x131;" horiz-adv-x="227" d="M72 479q0 15 15 15h53q15 0 15 -15v-464q0 -15 -15 -15h-53q-15 0 -15 15v464z" />
<glyph unicode="&#x152;" horiz-adv-x="900" d="M496 87q-27 -39 -72.5 -68.5t-113.5 -29.5q-77 0 -126 31.5t-77.5 83.5t-39 118.5t-10.5 136.5q0 40 5 83.5t16.5 84.5t31 77.5t49 64.5t69.5 44t92 16q60 0 103.5 -24t72.5 -66v67q0 15 16 15h329q15 0 15 -16v-46q0 -16 -15 -16h-265v-236h247q15 0 15 -16v-46 q0 -16 -15 -16h-247v-251h275q15 0 15 -16v-46q0 -16 -15 -16h-339q-16 0 -16 15v72zM319 62q56 0 90 29.5t53 73.5t25 96.5t6 98.5q0 43 -5 94t-22.5 95.5t-52 74t-93.5 29.5q-56 0 -89.5 -28.5t-52.5 -71.5t-25 -95t-6 -98q0 -42 5 -94t22.5 -97.5t51.5 -76t93 -30.5z" />
<glyph unicode="&#x153;" horiz-adv-x="814" d="M756 36q0 -11 -3.5 -15.5t-10.5 -7.5q-27 -11 -63 -17.5t-77 -6.5q-63 0 -106.5 24t-68.5 70q-32 -43 -71.5 -68.5t-103.5 -25.5q-56 0 -95 20.5t-64 55.5t-36.5 82.5t-11.5 100.5q0 48 12 94.5t37.5 83t66 58.5t97.5 22q114 0 171 -93q29 51 71.5 72t87.5 21 q51 0 86 -19.5t57 -52t31.5 -75t9.5 -89.5v-28q0 -9 -5 -14t-13 -5h-286q0 -32 8 -61t25.5 -51t46 -35t69.5 -13q35 0 62 7.5t40 12.5q9 3 14 5t10 2q13 0 13 -12v-42zM260 59q39 0 63 16t38 42.5t19 60.5t5 70q0 33 -4 66t-17 60t-38 43.5t-66 16.5q-37 0 -61.5 -16.5 t-39.5 -43t-21.5 -60t-6.5 -66.5q0 -32 5.5 -65t20 -61t39.5 -45.5t64 -17.5zM690 286q0 29 -4 56t-16 48t-33.5 33.5t-55.5 12.5q-26 0 -46.5 -11.5t-35 -31.5t-23 -47.5t-9.5 -59.5h223z" />
<glyph unicode="&#x178;" horiz-adv-x="517" d="M212 294l-196 397q-6 12 -6 17q0 13 17 13h52q18 0 26 -17l155 -324l156 324q8 17 26 17h48q17 0 17 -13q0 -5 -6 -17l-203 -397v-279q0 -15 -16 -15h-54q-16 0 -16 15v279zM363 781q-25 0 -40.5 17t-15.5 40q0 21 15 38t41 17q24 0 40.5 -15.5t16.5 -39.5 q0 -22 -14.5 -39.5t-42.5 -17.5zM156 781q-25 0 -40.5 17t-15.5 40q0 21 15 38t41 17q24 0 40.5 -15.5t16.5 -39.5q0 -22 -14.5 -39.5t-42.5 -17.5z" />
<glyph unicode="&#x2c6;" horiz-adv-x="500" d="M210 724q4 6 7.5 9.5t11.5 3.5h41q8 0 11 -3.5t7 -9.5l83 -134q2 -2 4 -6.5t2 -8.5q0 -9 -15 -9h-39q-15 0 -23 13l-51 82l-50 -82q-4 -6 -8 -9.5t-12 -3.5h-43q-14 0 -14 9q0 4 2 8.5t4 6.5z" />
<glyph unicode="&#x2da;" horiz-adv-x="500" d="M137 676q0 22 8 43t22.5 36.5t35.5 25t47 9.5q25 0 45.5 -9t35.5 -24.5t23 -36.5t8 -44q0 -22 -8 -42t-22.5 -35t-35.5 -24t-46 -9q-51 0 -82 31t-31 79zM250 620q23 0 38.5 16.5t15.5 39.5q0 22 -13 40.5t-41 18.5q-25 0 -40 -17t-15 -42q0 -23 14.5 -39.5t40.5 -16.5z " />
<glyph unicode="&#x2dc;" horiz-adv-x="500" d="M109 594q-6 0 -10 2.5t-4 10.5q0 17 4.5 36.5t12.5 35.5q18 32 60 32q24 0 43 -8t40 -25l27 -23q8 -7 17.5 -12.5t21.5 -5.5q15 0 19.5 13.5t4.5 26.5q0 8 4 10.5t10 2.5h35q3 0 7 -2t4 -9q0 -48 -17 -79q-18 -30 -55 -30q-26 0 -45.5 8t-39.5 24l-28 23q-11 7 -19.5 14 t-22.5 7q-8 0 -12.5 -4.5t-6.5 -11t-3 -13.5t-1 -12q0 -7 -4 -9t-7 -2h-35z" />
<glyph unicode="&#x2000;" horiz-adv-x="462" />
<glyph unicode="&#x2001;" horiz-adv-x="925" />
<glyph unicode="&#x2002;" horiz-adv-x="462" />
<glyph unicode="&#x2003;" horiz-adv-x="925" />
<glyph unicode="&#x2004;" horiz-adv-x="308" />
<glyph unicode="&#x2005;" horiz-adv-x="231" />
<glyph unicode="&#x2006;" horiz-adv-x="154" />
<glyph unicode="&#x2007;" horiz-adv-x="154" />
<glyph unicode="&#x2008;" horiz-adv-x="115" />
<glyph unicode="&#x2009;" horiz-adv-x="185" />
<glyph unicode="&#x200a;" horiz-adv-x="51" />
<glyph unicode="&#x2010;" horiz-adv-x="463" d="M77 316q0 15 15 15h286q16 0 16 -15v-49q0 -15 -15 -15h-287q-15 0 -15 15v49z" />
<glyph unicode="&#x2011;" horiz-adv-x="463" d="M77 316q0 15 15 15h286q16 0 16 -15v-49q0 -15 -15 -15h-287q-15 0 -15 15v49z" />
<glyph unicode="&#x2013;" horiz-adv-x="500" d="M0 339q0 15 15 15h469q16 0 16 -15v-49q0 -15 -15 -15h-470q-15 0 -15 15v49z" />
<glyph unicode="&#x2014;" horiz-adv-x="1000" d="M0 339q0 15 15 15h969q16 0 16 -15v-49q0 -15 -15 -15h-970q-15 0 -15 15v49z" />
<glyph unicode="&#x2018;" horiz-adv-x="253" d="M170 729q13 0 13 -8q0 -2 -1 -4.5t-6 -7.5q-11 -16 -22.5 -38t-13.5 -34q24 -6 36 -22t12 -37q0 -26 -17 -42.5t-43 -16.5q-30 0 -46.5 18t-16.5 46q0 20 5 40t12.5 37.5t15.5 32.5t14 24q6 12 19 12h39z" />
<glyph unicode="&#x2019;" horiz-adv-x="253" d="M83 519q-13 0 -13 8q0 2 1 4.5t6 7.5q11 16 22.5 38t13.5 34q-24 6 -36 22t-12 37q0 26 17 42.5t43 16.5q30 0 46.5 -18t16.5 -46q0 -20 -5 -40t-12.5 -37.5t-15.5 -32.5t-14 -24q-6 -12 -19 -12h-39z" />
<glyph unicode="&#x201a;" horiz-adv-x="253" d="M83 -87q-13 0 -13 8q0 2 1 4.5t6 7.5q11 16 22.5 38t13.5 34q-24 6 -36 22t-12 37q0 26 17 42.5t43 16.5q30 0 46.5 -18t16.5 -46q0 -20 -5 -40t-12.5 -37.5t-15.5 -32.5t-14 -24q-6 -12 -19 -12h-39z" />
<glyph unicode="&#x201c;" horiz-adv-x="430" d="M170 729q13 0 13 -8q0 -2 -1 -4.5t-6 -7.5q-11 -16 -22.5 -38t-13.5 -34q24 -6 36 -22t12 -37q0 -26 -17 -42.5t-43 -16.5q-30 0 -46.5 18t-16.5 46q0 20 5 40t12.5 37.5t15.5 32.5t14 24q6 12 19 12h39zM347 729q13 0 13 -8q0 -2 -1 -4.5t-6 -7.5q-11 -16 -22.5 -38 t-13.5 -34q24 -6 36 -22t12 -37q0 -26 -17 -42.5t-43 -16.5q-30 0 -46.5 18t-16.5 46q0 20 5 40t12.5 37.5t15.5 32.5t14 24q6 12 19 12h39z" />
<glyph unicode="&#x201d;" horiz-adv-x="430" d="M83 519q-13 0 -13 8q0 2 1 4.5t6 7.5q11 16 22.5 38t13.5 34q-24 6 -36 22t-12 37q0 26 17 42.5t43 16.5q30 0 46.5 -18t16.5 -46q0 -20 -5 -40t-12.5 -37.5t-15.5 -32.5t-14 -24q-6 -12 -19 -12h-39zM260 519q-13 0 -13 8q0 2 1 4.5t6 7.5q11 16 22.5 38t13.5 34 q-24 6 -36 22t-12 37q0 26 17 42.5t43 16.5q30 0 46.5 -18t16.5 -46q0 -20 -5 -40t-12.5 -37.5t-15.5 -32.5t-14 -24q-6 -12 -19 -12h-39z" />
<glyph unicode="&#x201e;" horiz-adv-x="430" d="M83 -87q-13 0 -13 8q0 2 1 4.5t6 7.5q11 16 22.5 38t13.5 34q-24 6 -36 22t-12 37q0 26 17 42.5t43 16.5q30 0 46.5 -18t16.5 -46q0 -20 -5 -40t-12.5 -37.5t-15.5 -32.5t-14 -24q-6 -12 -19 -12h-39zM260 -87q-13 0 -13 8q0 2 1 4.5t6 7.5q11 16 22.5 38t13.5 34 q-24 6 -36 22t-12 37q0 26 17 42.5t43 16.5q30 0 46.5 -18t16.5 -46q0 -20 -5 -40t-12.5 -37.5t-15.5 -32.5t-14 -24q-6 -12 -19 -12h-39z" />
<glyph unicode="&#x2022;" horiz-adv-x="459" d="M229 167q-36 0 -65.5 12.5t-50 34t-32 50.5t-11.5 62q0 32 11 61t31.5 50.5t50 34.5t66.5 13q35 0 64.5 -12t50.5 -33.5t33 -50.5t12 -63q0 -32 -11 -60.5t-31.5 -50.5t-50.5 -35t-67 -13z" />
<glyph unicode="&#x2026;" horiz-adv-x="839" d="M687 -11q-28 0 -48.5 18.5t-20.5 50.5q0 31 20 50.5t49 19.5q28 0 49 -19t21 -51q0 -29 -20.5 -49t-49.5 -20zM417 -11q-28 0 -48.5 18.5t-20.5 50.5q0 31 20 50.5t49 19.5q28 0 49 -19t21 -51q0 -29 -20.5 -49t-49.5 -20zM144 -11q-28 0 -48.5 18.5t-20.5 50.5 q0 31 20 50.5t49 19.5q28 0 49 -19t21 -51q0 -29 -20.5 -49t-49.5 -20z" />
<glyph unicode="&#x202f;" horiz-adv-x="185" />
<glyph unicode="&#x2039;" horiz-adv-x="306" d="M56 249q-6 6 -6 14v6q0 6 4 12l102 143q8 11 15.5 15t21.5 4h46q17 0 17 -14q0 -6 -9 -18l-103 -140l103 -142q9 -12 9 -18q0 -14 -17 -14h-46q-14 0 -21.5 4t-15.5 15z" />
<glyph unicode="&#x203a;" horiz-adv-x="306" d="M67 97q-17 0 -17 14q0 6 9 18l103 142l-103 140q-9 12 -9 18q0 14 17 14h46q14 0 21.5 -4t15.5 -15l102 -143q4 -6 4 -12v-6q0 -8 -6 -14l-100 -133q-8 -11 -15.5 -15t-21.5 -4h-46z" />
<glyph unicode="&#x2044;" horiz-adv-x="210" d="M239 702q7 13 15 16t22 3h26q17 0 17 -12q0 -5 -2 -9.5t-4 -8.5l-357 -672q-7 -13 -15 -16t-22 -3h-28q-18 0 -18 12q0 5 2.5 9.5t4.5 8.5z" />
<glyph unicode="&#x205f;" horiz-adv-x="231" />
<glyph unicode="&#x2074;" horiz-adv-x="400" d="M222 466v173l-120 -173h120zM40 456q0 11 6 19l163 235q5 8 9.5 9.5t9.5 1.5h54q10 0 10 -9v-246h46q9 0 9 -9v-40q0 -9 -9 -9h-46v-112q0 -9 -10 -9h-50q-10 0 -10 9v112h-173q-9 0 -9 9v39z" />
<glyph unicode="&#x20ac;" d="M47 251q-15 0 -15 16v31q0 5 3 10.5t11 5.5h73q-1 9 -1.5 20t-0.5 22q0 15 0.5 28.5t1.5 20.5h-72q-15 0 -15 16v31q0 6 3 11t11 5h79q7 51 24 98.5t46 83.5t72.5 57.5t103.5 21.5q75 0 125 -19q12 -5 15.5 -9.5t3.5 -9.5t-1 -11l-2 -10l-6 -29q-3 -14 -13 -14 q-5 0 -10.5 2t-12.5 4q-20 7 -39.5 11.5t-56.5 4.5q-39 0 -66.5 -15t-46.5 -39.5t-29.5 -57.5t-15.5 -69h208q7 0 11 -5t4 -11v-31q0 -16 -16 -16h-214q-1 -11 -1.5 -24.5t-0.5 -28.5v-18q0 -10 1 -20h216q8 0 11.5 -5.5t3.5 -10.5v-31q0 -16 -15 -16h-210q4 -36 13.5 -69 t28.5 -58.5t49 -40.5t75 -15q26 0 43 3.5t43 11.5q10 3 15 5t10 2q14 0 14 -12v-47q0 -12 -4 -16.5t-11 -7.5q-27 -11 -56 -14.5t-67 -3.5q-65 0 -109 20.5t-72 56t-42.5 83t-20.5 102.5h-76z" />
<glyph unicode="&#x2122;" horiz-adv-x="812" d="M132 658h-105q-12 0 -12 13v37q0 13 12 13h280q12 0 12 -13v-37q0 -13 -12 -13h-106v-286q0 -12 -13 -12h-43q-13 0 -13 12v286zM383 712q0 9 9 9h57q9 0 12 -8l105 -236l110 236q2 8 12 8h55q9 0 9 -9v-344q0 -9 -9 -9h-48q-10 0 -10 9v223l-86 -177q-4 -10 -18 -10h-31 q-14 0 -19 11l-81 173v-220q0 -9 -9 -9h-49q-9 0 -9 9v344z" />
<glyph unicode="&#x2212;" d="M92 354q0 15 15 15h329q16 0 16 -15v-44q0 -15 -15 -15h-330q-15 0 -15 15v44z" />
<glyph horiz-adv-x="571" d="M192 -133q3 9 8 9t16 -4.5t29 -4.5t25.5 8t7.5 21q0 16 -10.5 23.5t-24.5 12.5q-7 3 -7 8q0 3 2 11l11 57l51 -2l-10 -50q58 -16 58 -68q0 -14 -4.5 -27t-15 -24t-28 -17.5t-42.5 -6.5q-23 0 -40.5 4.5t-22.5 6.5q-10 3 -10 9q0 3 2 11z" />
<glyph horiz-adv-x="571" d="M144 800q-6 0 -10 2.5t-4 10.5q0 17 4.5 36.5t12.5 35.5q18 32 60 32q24 0 43 -8t40 -25l27 -23q8 -7 17.5 -12.5t21.5 -5.5q15 0 19.5 13.5t4.5 26.5q0 8 4 10.5t10 2.5h35q3 0 7 -2t4 -9q0 -48 -17 -79q-18 -30 -55 -30q-26 0 -45.5 8t-39.5 24l-28 23q-11 7 -19.5 14 t-22.5 7q-8 0 -12.5 -4.5t-6.5 -11t-3 -13.5t-1 -12q0 -7 -4 -9t-7 -2h-35z" />
<glyph horiz-adv-x="571" d="M389 781q-25 0 -40.5 17t-15.5 40q0 21 15 38t41 17q24 0 40.5 -15.5t16.5 -39.5q0 -22 -14.5 -39.5t-42.5 -17.5zM182 781q-25 0 -40.5 17t-15.5 40q0 21 15 38t41 17q24 0 40.5 -15.5t16.5 -39.5q0 -22 -14.5 -39.5t-42.5 -17.5z" />
<glyph horiz-adv-x="571" d="M229 891q5 5 10.5 9t13.5 4h67q8 0 12 -4l9 -9l77 -93q3 -4 6 -7.5t3 -7.5q0 -9 -15 -9h-49q-8 0 -13 4t-10 9l-55 66l-54 -66q-5 -6 -9 -9.5t-12 -3.5h-54q-13 0 -13 9q0 6 7 15z" />
<glyph horiz-adv-x="571" d="M235 774q-17 0 -17 12q0 4 4 14l44 89q7 15 20 15h53q5 0 10.5 -2.5t5.5 -10.5q0 -2 -0.5 -5t-2.5 -7l-48 -89q-5 -8 -9.5 -12t-13.5 -4h-46z" />
<glyph horiz-adv-x="571" d="M216 879q-2 4 -2.5 7t-0.5 5q0 8 5.5 10.5t10.5 2.5h53q12 0 20 -15l44 -89q4 -10 4 -14q0 -12 -17 -12h-46q-9 0 -13.5 4t-9.5 12z" />
</font>
</defs>
</svg>
